<?xml version="1.0" standalone="no"?>
<!DOCTYPE svg PUBLIC "-//W3C//DTD SVG 1.1//EN" "http://www.w3.org/Graphics/SVG/1.1/DTD/svg11.dtd" >
<svg xmlns="http://www.w3.org/2000/svg">
<metadata></metadata>
<defs>
<font id="akzidenz-grotesk_condensed_Rg" horiz-adv-x="641" >
<font-face units-per-em="2048" ascent="1638" descent="-410" />
<missing-glyph horiz-adv-x="425" />
<glyph horiz-adv-x="2048" />
<glyph horiz-adv-x="2048" />
<glyph unicode="&#xd;" horiz-adv-x="1024" />
<glyph unicode=" "  horiz-adv-x="425" />
<glyph unicode="&#x09;" horiz-adv-x="425" />
<glyph unicode="&#xa0;" horiz-adv-x="425" />
<glyph unicode="!" horiz-adv-x="382" d="M143 0h166v264h-166v-264zM143 926l39 -473h88l37 421v558h-164v-506z" />
<glyph unicode="&#x22;" horiz-adv-x="811" d="M106 1423q0 -16 3 -32l79 -502h48l83 526q0 33 -5 57.5t-38 45.5q-27 16 -57 16q-53 0 -78.5 -27.5t-29.5 -50.5q-4 -16 -5 -33zM491 1423.5q1 -16.5 3 -32.5l79 -502h48l81 526q2 33 -3 57.5t-37 45.5q-27 16 -58 16q-53 0 -79.5 -27.5t-30.5 -50.5q-4 -16 -3 -32.5z " />
<glyph unicode="#" horiz-adv-x="1193" d="M0 471h283l-70 -471h168l65 471h228l-68 -471h164l68 471h307v158h-287l33 219h305v158h-283l60 440h-160l-63 -440h-226l62 440h-164l-64 -440h-309v-158h289l-33 -219h-305v-158zM469 629l31 219h227l-31 -219h-227z" />
<glyph unicode="$" horiz-adv-x="681" d="M61 516q0 -86 2.5 -154.5t9.5 -123t22.5 -96.5t43.5 -72q41 -45 86 -60.5t64 -19.5v-144h94v144q27 4 41 7t27 7q31 10 63.5 31.5t59 57.5t44 89.5t17.5 126.5q0 68 -12.5 123t-35 104.5t-53 96.5t-67.5 100l-88 117q-29 39 -48.5 65.5t-32.5 49t-22.5 43t-17.5 45.5 q-14 37 -16 63.5t-2 42.5q0 84 31.5 119t72.5 35q14 0 39 -8.5t41 -42.5q12 -23 15 -49.5t5 -55.5q2 -39 2 -76v-75l160 -2q2 27 3 52t1 52q0 113 -17.5 174t-55.5 104q-35 39 -72 53.5t-84 22.5v117h-94v-119q-23 -4 -31 -7t-23 -7q-25 -10 -53 -30.5t-53 -55.5t-42 -83 t-17 -114q0 -72 16 -132t44 -116.5t64.5 -109.5t75.5 -109l94 -121q12 -18 30 -41.5t33 -56.5t25.5 -74t10.5 -96q0 -66 -14.5 -100.5t-43.5 -52.5q-6 -4 -20 -10.5t-37 -6.5q-63 0 -90 60q-16 41 -19.5 123.5t-5.5 193.5z" />
<glyph unicode="%" horiz-adv-x="1193" d="M45 741q-2 -53 8 -100t62 -82q27 -16 55.5 -23.5t60.5 -7.5q8 0 32 1t49.5 10.5t51 29t42.5 54.5q12 27 15 57.5t3 89.5v479q0 25 -4 61t-22.5 68.5t-57.5 56t-109 23.5q-78 0 -117.5 -30.5t-52 -59.5t-14.5 -53.5t-2 -52.5v-521zM162 700v25v547v22q0 16 6 30.5t20.5 26 t42.5 11.5q25 0 39.5 -6t21.5 -17.5t10 -23.5t3 -21v-587q0 -8 -1 -21.5t-7 -26t-20.5 -20.5t-40.5 -8q-31 0 -46.5 12t-21.5 27.5t-6 29.5zM233 -10l101 -43l633 1509l-101 41zM776 203q0 -53 9.5 -101.5t60.5 -81.5q27 -18 56.5 -24t60.5 -6q8 0 31.5 1t50 10t52 27.5 t40.5 53.5q12 27 15 58.5t3 88.5v480q-2 29 -3 53t-11 53q-14 39 -40 60.5t-52.5 30.5t-50 11.5t-35.5 2.5q-78 0 -117 -31t-53 -62q-12 -27 -14.5 -51t-2.5 -53v-520zM893 162v24v547v23q0 14 6 29.5t20.5 26.5t43.5 11q49 0 60 -24.5t13 -44.5v-15q0 -6 2 -14v-557 q0 -8 -2 -21.5t-8 -25.5t-20.5 -21.5t-40.5 -9.5q-31 0 -46.5 12.5t-21.5 27.5t-6 32z" />
<glyph unicode="&#x26;" horiz-adv-x="894" d="M59 373q0 -82 17.5 -143.5t46.5 -104.5t63.5 -70.5t65.5 -42.5q45 -23 82 -26.5t55 -3.5q51 0 91 12t70 30.5t50.5 39t32.5 34.5q33 -29 52.5 -40t39.5 -21q18 -10 33.5 -16.5t33 -12.5t41 -11t60.5 -11l2 186q-39 4 -77 18.5t-97 65.5q59 109 73.5 228.5t16.5 240.5 h-164q-2 -66 -5 -110t-8 -78.5t-12.5 -63.5t-19.5 -63q-25 41 -49.5 83t-48.5 85q-43 80 -80 165q39 43 78 93.5t70.5 104.5t51 113.5t19.5 121.5q0 51 -12.5 89t-30.5 65.5t-39.5 44t-40.5 26.5q-35 16 -67.5 20t-42.5 4q-47 0 -83 -12t-62.5 -29.5t-44 -36t-27.5 -32.5 q-23 -33 -36.5 -68t-19.5 -65.5t-7 -55t-1 -36.5q0 -94 22.5 -168t34.5 -103q6 -16 13.5 -29.5t15.5 -29.5q-47 -61 -84 -118.5t-57 -135.5q-10 -47 -12.5 -81t-2.5 -52zM229 385q-2 63 17.5 109.5t54.5 97.5q23 -45 45.5 -90t46.5 -88q27 -47 56.5 -93.5t58.5 -93.5 q-4 -6 -13.5 -18t-24.5 -24.5t-34.5 -21.5t-46.5 -9q-29 0 -50.5 10t-36.5 24.5t-24.5 27.5t-13.5 20q-10 20 -22.5 58t-12.5 91zM297 1122q0 82 30.5 121t71.5 39q29 0 53.5 -20.5t24.5 -79.5q0 -39 -12 -76t-32.5 -72t-44.5 -66.5t-44 -60.5q-10 25 -28.5 81t-18.5 134z " />
<glyph unicode="'" horiz-adv-x="425" d="M106 1423q0 -16 3 -32l79 -502h48l83 526q0 33 -5 57.5t-38 45.5q-27 16 -57 16q-53 0 -78.5 -27.5t-29.5 -50.5q-4 -16 -5 -33z" />
<glyph unicode="(" horiz-adv-x="512" d="M63 553q0 -37 6.5 -129t31 -210t74.5 -248t140 -242q49 -61 92.5 -97.5t67.5 -56.5l2 121q-29 29 -53.5 62.5t-58.5 105.5q-25 49 -36.5 79.5t-19.5 55.5q-25 80 -38 168t-19 167t-6 136v76q0 86 6 176q8 102 29.5 222t56.5 218q29 72 56.5 114t49.5 66q8 10 16.5 17.5 t16.5 15.5l2 121q-41 -29 -68.5 -51.5t-62.5 -59.5q-102 -111 -159.5 -237.5t-85 -244.5t-34 -211t-6.5 -134z" />
<glyph unicode=")" horiz-adv-x="512" d="M33 -430q45 31 74.5 54.5t64.5 64.5q100 109 155.5 234.5t82 241.5t33 208t6.5 133q0 37 -5.5 129t-30 211t-75.5 249t-141 242q-49 61 -92.5 97t-67.5 57v-123q27 -29 51.5 -61.5t58.5 -104.5q25 -49 36.5 -79.5t19.5 -57.5q25 -80 38 -168t19 -166t6 -135v-76 q0 -45 -1 -89t-5 -87q-8 -102 -29.5 -223t-56.5 -217q-29 -72 -56.5 -115t-49.5 -68q-8 -10 -16.5 -16t-16.5 -16z" />
<glyph unicode="*" horiz-adv-x="811" d="M68 1133l153 -46l115 5l-96 -80l-82 -131l129 -74l90 133l24 127l35 -127l92 -133l125 82l-90 135l-98 70h123l157 36l-40 148l-142 -39l-117 -53l27 108v152h-147v-152l34 -120l-102 55l-149 57z" />
<glyph unicode="+" horiz-adv-x="1024" d="M66 514h364v-369h162v369h366v164h-366v366h-162v-366h-364v-164z" />
<glyph unicode="," horiz-adv-x="299" d="M63 0h82v-43q-4 -41 -9 -88t-40 -80q-6 -6 -12 -11t-12 -9v-45q27 16 50 32.5t46 40.5q35 41 46 93.5t13 154.5v219h-164v-264z" />
<glyph unicode="-" horiz-adv-x="468" d="M59 582h363v172h-363v-172z" />
<glyph unicode="." horiz-adv-x="299" d="M61 0h168v270h-168v-270z" />
<glyph unicode="/" horiz-adv-x="512" d="M18 0h160l311 1446h-157z" />
<glyph unicode="0" horiz-adv-x="724" d="M66 332q-2 -66 1 -102.5t13 -71.5q20 -63 59 -98t82 -51.5t82 -19.5t55 -3q59 0 116.5 14t105.5 55q45 39 61 93.5t18 162.5v846q-2 55 -4 82t-12 55q-8 31 -26.5 60.5t-51.5 54.5t-81 40t-117 15q-70 0 -120 -15t-84 -40t-53.5 -55.5t-29.5 -61.5q-6 -23 -9 -50.5 t-5 -74.5v-835zM240 276v920q2 35 6 51q6 29 22.5 44.5t35 23.5t34.5 9t24 1q39 0 63 -11t36 -28.5t16 -37t4 -34.5q2 -10 2 -22v-21v-905v-20t-4 -31.5t-15 -35t-32 -29.5q-16 -10 -32.5 -12.5t-37.5 -2.5q-49 0 -73.5 16.5t-35.5 39t-12 46t-1 39.5z" />
<glyph unicode="1" horiz-adv-x="724" d="M137 1092h160v-1092h182v1440h-125q-4 -18 -7 -33.5t-11 -32.5q-10 -25 -23.5 -42t-19.5 -25q-43 -49 -86 -60.5t-68 -13.5z" />
<glyph unicode="2" horiz-adv-x="724" d="M74 967h176v231q0 33 7 60.5t40 44.5q8 4 24.5 9t38.5 5q45 0 68 -18.5t32 -43t9 -49.5v-32v-144q0 -66 -5 -98.5t-18 -65.5q-10 -27 -22 -48t-28.5 -44.5t-38 -52.5t-50.5 -72q-45 -63 -77.5 -114.5t-55 -94.5t-37 -80.5t-24.5 -72.5q-29 -96 -31 -173t-2 -114h577v162 h-389q2 16 4 29.5t7 27.5q14 59 41.5 116.5t56.5 104.5t53.5 81t32.5 46q63 92 102 154.5t56 107.5q10 25 15 49.5t8 54.5t4 67.5t1 89.5v73q0 37 -4 74q0 10 -2 28.5t-9 40t-20.5 45t-35.5 44.5q-45 41 -102.5 52t-117.5 11q-14 0 -52 -1t-83 -16.5t-85 -50t-56 -100.5 q-8 -33 -8 -63v-41v-219z" />
<glyph unicode="3" horiz-adv-x="724" d="M68 236q0 -27 1 -49.5t9 -49.5q10 -31 25.5 -50t23.5 -28q29 -29 63.5 -43t67.5 -20t58.5 -7t33.5 -1q43 0 85 7t79 23.5t65.5 46t43.5 74.5q10 29 13 67t3 99v250q0 37 -2 73t-13.5 68.5t-33 60t-62.5 44.5q-23 8 -37 10t-24 6q27 6 50.5 14.5t43.5 26.5q27 23 36 55.5 t11 98.5v219q2 39 0 57.5t-8 38.5q-16 53 -55 82t-81 41t-76 13t-42 1q-127 0 -187.5 -45t-80.5 -102q-10 -31 -10 -60v-36v-129h174v129q0 14 1 32.5t10 35t29.5 27.5t57.5 11q35 0 53.5 -9t27.5 -23.5t12 -32t3 -31.5v-211q-2 -27 -6 -49.5t-24 -44.5q-25 -31 -74 -42.5 t-127 -6.5v-170q16 0 33.5 1t33.5 1q49 0 101.5 -12.5t75.5 -63.5q8 -16 11 -38t3 -58v-277q0 -23 -2 -42t-12.5 -37.5t-24.5 -28t-28.5 -13.5t-26 -5t-17.5 -1q-47 0 -71.5 18.5t-30.5 36.5q-8 18 -8 39v27v184h-174v-202z" />
<glyph unicode="4" horiz-adv-x="724" d="M16 334h400v-334h172v334h102v153h-102v951h-266l-306 -957v-147zM180 487l234 758v-758h-234z" />
<glyph unicode="5" horiz-adv-x="724" d="M86 231q0 -33 2 -61.5t16 -58.5q14 -35 39 -57.5t49.5 -36t46 -19.5t31.5 -8q33 -8 60 -8h41q14 0 50 2t78 15t82 45t58 93q12 37 13 69t1 46v534q-2 41 -4 61.5t-10 43.5q-23 72 -82 100.5t-131 28.5q-70 0 -107.5 -20.5t-60.5 -38.5l-2 311h356v166h-516v-727h152v30 q2 53 14 76q10 18 33.5 34.5t71.5 16.5q41 0 63.5 -13t32.5 -32.5t12 -40t2 -34.5v-465q0 -35 -4 -74t-37 -62q-16 -10 -35.5 -15t-38.5 -5q-39 0 -65 20q-25 16 -31 42t-8 55v200h-172v-213z" />
<glyph unicode="6" horiz-adv-x="724" d="M84 293q0 -35 1 -67.5t11 -67.5q8 -29 25.5 -59.5t50.5 -55.5t81 -41t116 -16q63 0 109 13t79 34.5t53.5 48.5t30.5 53q12 33 14 64.5t4 66.5v334q0 33 -2 66.5t-10 66.5t-24.5 60.5t-47.5 50.5q-41 31 -81.5 36t-57.5 5q-47 0 -76.5 -11.5t-46.5 -21.5 q-23 -16 -36 -30.5t-19 -22.5v362q0 35 4 74t39 61q20 14 39.5 16.5t30.5 2.5q43 0 65.5 -15.5t33.5 -37t13 -44t2 -34.5v-158h168v145q0 47 -2 74t-8 49q-18 63 -55 97t-78 49.5t-78 18.5t-53 3q-70 0 -134.5 -16t-111.5 -76q-37 -49 -44 -104.5t-5 -114.5v-858zM256 268 v324q0 29 2 41t6 29q8 23 31.5 46t77.5 23q61 0 83.5 -26.5t26.5 -53.5q2 -10 2 -22t2 -35v-338q-2 -31 -8 -61.5t-35 -49.5q-10 -6 -26.5 -12t-44.5 -6q-18 0 -37 4t-35 14q-33 23 -38 55.5t-7 67.5z" />
<glyph unicode="7" horiz-adv-x="724" d="M86 1268h381q-35 -78 -92.5 -214t-110.5 -341q-29 -115 -47 -226.5t-29.5 -207t-16.5 -168t-7 -111.5h209q2 59 4 115.5t6 113.5q2 39 11 129.5t28.5 207t50.5 251.5t78 268q16 49 35.5 96.5t42.5 94.5v156h-543v-164z" />
<glyph unicode="8" horiz-adv-x="724" d="M66 283q0 -33 2 -63t12 -62q18 -66 57 -102t81 -52t81 -19t57 -3q63 0 111.5 14t82.5 35.5t54.5 49.5t30.5 56q14 37 16 76t2 49v256q0 27 -2 55.5t-8 55t-19.5 49t-39.5 41.5q-23 16 -44.5 23.5t-45.5 13.5q53 16 83.5 41.5t46 59.5t19.5 76t4 93v113q0 72 -11 138 t-73 116q-45 35 -94 46t-104 11q-37 0 -61.5 -4t-39.5 -8q-41 -10 -66.5 -26.5t-37.5 -29.5q-31 -29 -46.5 -61.5t-21.5 -62t-6 -54.5v-37v-213q2 -51 12.5 -90t53.5 -69q14 -10 30.5 -18.5t46.5 -20.5q-33 -8 -61.5 -20.5t-50.5 -39.5q-35 -39 -43 -91t-8 -148v-174z M240 268v217q0 51 2 80t12 53q10 23 32.5 40.5t73.5 17.5q6 0 21.5 -1t33 -7t34 -20.5t22.5 -41.5q6 -18 6 -61v-232q0 -53 -2 -83.5t-18 -55.5q-12 -16 -26.5 -26.5t-28 -14.5t-25.5 -5t-19 -1q-57 0 -80.5 26.5t-29.5 49.5q-4 12 -6 25.5t-2 39.5zM260 928v18v236 q0 12 1 33.5t10.5 43t33 37t66.5 15.5q39 0 59.5 -13.5t29.5 -32t10 -39t1 -32.5v-240q0 -47 -11 -70.5t-34 -37.5q-18 -10 -36.5 -12.5t-24.5 -2.5t-20.5 1.5t-30 7.5t-30 19t-20.5 38q-4 14 -4 31z" />
<glyph unicode="9" horiz-adv-x="724" d="M66 850q0 -33 2 -66.5t10 -65.5t24.5 -60.5t47.5 -51.5q41 -31 81.5 -35t57.5 -4q47 0 76.5 10.5t46.5 22.5q23 16 36 29.5t19 21.5v-362q0 -35 -4 -73t-39 -60q-20 -16 -39.5 -17.5t-30.5 -1.5q-43 0 -65.5 15.5t-33.5 36t-13 43t-2 34.5v160h-168v-145q0 -47 2 -75 t8 -50q18 -61 55 -96t78 -50.5t78 -18.5t53 -3q70 0 134.5 17.5t111.5 76.5q39 47 45 103.5t4 113.5v858q2 35 1 67.5t-11 67.5q-8 29 -26.5 59.5t-51.5 56.5t-81 42t-116 16q-63 0 -109 -14t-79 -35.5t-53.5 -48.5t-30.5 -51q-12 -35 -14 -65.5t-4 -65.5v-336zM240 821v35 v338q0 33 6 62.5t35 50.5q10 6 26.5 12t44.5 6q45 0 72 -18q33 -23 38 -55.5t7 -67.5v-324q0 -29 -2 -42t-6 -27q-8 -23 -31.5 -46.5t-77.5 -25.5q-59 0 -82.5 27.5t-27.5 52.5q-2 10 -2 22z" />
<glyph unicode=":" horiz-adv-x="382" d="M147 0h170v270h-170v-270zM150 662h167v264h-167v-264z" />
<glyph unicode=";" horiz-adv-x="382" d="M141 0h82v-37q-2 -43 -7 -90t-40 -80l-10 -10l-16 -12v-47q29 16 41 24t26 19q31 27 47.5 55t25.5 54t12 48.5t5 34.5q0 16 1 31.5t1 32.5v247h-168v-270zM143 664h168v264h-168v-264z" />
<glyph unicode="&#x3c;" horiz-adv-x="1024" d="M0 635l1024 -496v178l-821 406l821 405v179l-1024 -496v-176z" />
<glyph unicode="=" horiz-adv-x="1024" d="M0 328h1024v159h-1024v-159zM0 698h1024v160h-1024v-160z" />
<glyph unicode="&#x3e;" horiz-adv-x="1024" d="M0 139l1024 496v176l-1024 496v-179l821 -405l-821 -406v-178z" />
<glyph unicode="?" horiz-adv-x="681" d="M111 1032l155 -2v80v41t4 46.5t12.5 44t26.5 32.5q16 12 32.5 14t25.5 2q31 0 49 -11t27.5 -26.5t12.5 -32t5 -24.5q2 -14 2 -29v-26q0 -51 -8.5 -86t-14.5 -56q-12 -39 -29.5 -78.5t-21.5 -48.5q-29 -59 -48 -101t-33.5 -75.5t-24 -64.5t-15.5 -64q-4 -27 -5 -47t-1 -67 h146q0 55 7 92t23.5 74.5t43 87t67.5 129.5q8 14 23.5 44.5t29.5 70.5t24.5 90.5t10.5 105.5q0 57 -12.5 101t-32 75t-43 51.5t-43.5 32.5q-43 25 -83 29t-56 4t-47 -3t-67 -17.5t-68.5 -43t-53.5 -80.5q-16 -47 -19 -105t-1 -159zM256 0h164v264h-164v-264z" />
<glyph unicode="@" horiz-adv-x="1835" d="M141 487q0 -188 59.5 -316t145.5 -210t181.5 -124t166.5 -60q78 -23 141.5 -27t92.5 -4q125 0 233.5 28.5t194.5 68.5t149.5 85t100.5 76q18 16 36.5 33.5t34.5 36.5l-65 84q-16 -16 -33.5 -34t-40.5 -34q-14 -10 -29.5 -22.5t-29.5 -22.5q-88 -63 -171 -100t-154 -56.5 t-128 -24.5t-96 -5q-23 0 -80 4t-131 22.5t-155 57.5t-148 110q-59 61 -91 126t-47.5 123t-18.5 104.5t-3 68.5q0 96 18.5 179t45 150.5t56.5 119t54 84.5q37 51 77 91t77 69.5t68.5 50t52.5 30.5q119 66 217 82.5t145 16.5q113 0 206 -31t160.5 -92.5t104.5 -152.5t37 -210 q0 -72 -11.5 -135t-27.5 -116.5t-34.5 -93.5t-33.5 -66q-47 -86 -104 -135.5t-100 -49.5q-23 0 -42.5 19.5t-19.5 66.5q0 37 6 83t15.5 94.5t18.5 94.5t18 83l67 307h-139l-31 -127q-10 23 -19.5 43t-25.5 39q-25 33 -53.5 51t-55 27.5t-47 11.5t-32.5 2q-51 0 -86 -12.5 t-52 -20.5q-53 -27 -98 -68.5t-80 -92t-60.5 -108t-39.5 -112.5q-14 -57 -16.5 -99t-2.5 -63q0 -74 20.5 -153.5t94.5 -134.5q47 -35 90 -43.5t62 -8.5q59 0 108 20.5t86 48.5t62.5 57.5t38.5 45.5q0 -4 1 -28.5t11 -48.5q14 -35 37.5 -54.5t47 -29t44 -11.5t29.5 -2 q45 0 83.5 14.5t69.5 33t52.5 38t33.5 29.5q53 53 88 109.5t45 76.5q12 23 28.5 65t33 97.5t28 122t11.5 137.5q0 88 -15.5 157t-41 122t-57.5 93t-64 69q-29 27 -69 54.5t-92 49t-119 34.5t-151 13q-145 0 -260.5 -36t-207 -90t-156 -115.5t-103.5 -110.5 q-31 -39 -67.5 -97.5t-70.5 -137t-56.5 -175t-22.5 -209.5zM651 487q0 16 3 53.5t14.5 85.5t34 102t59.5 103q47 63 98 80t80 17q39 0 67.5 -15.5t47 -37t29 -44t14.5 -34.5q8 -27 8 -52v-32q0 -61 -11.5 -113.5t-28.5 -95.5t-37.5 -75t-37.5 -52q-51 -61 -101 -79.5 t-79 -18.5q-12 0 -35.5 3t-52.5 25q-10 6 -23.5 19.5t-23.5 33.5q-16 29 -20.5 64t-4.5 63z" />
<glyph unicode="A" horiz-adv-x="681" d="M12 0h187l32 266h218l36 -266h187l-223 1446h-232zM252 442l61 498q4 59 6.5 116.5t4.5 117.5h16q2 -39 2 -78q0 -37 2 -78q2 -18 3 -36.5t5 -37.5l72 -502h-172z" />
<glyph unicode="B" horiz-adv-x="724" d="M86 0h291q51 0 107.5 5t99.5 40q23 20 35 47t18 51.5t7 44t1 25.5q4 45 4 88v88v55q0 29 -2 58q0 76 -2 121t-18 75q-20 35 -52 46.5t-71 15.5v10q4 2 18 2t27 4q23 6 44 21.5t34 38.5q14 31 16 68.5t2 43.5q2 35 3 68t1 67q0 18 -1 37t-1 37q-2 96 -8 152.5t-45 93.5 q-35 33 -80 38t-90 5h-338v-1446zM270 178v504h107q14 0 30.5 -3t28.5 -13q16 -16 19.5 -43t5.5 -48q2 -37 3 -72.5t1 -72.5q0 -31 -1 -63.5t-2 -60t-2 -49t-1 -30.5q-4 -20 -12.5 -29.5t-20.5 -13.5t-26.5 -5t-30.5 -1h-99zM270 840v434h95q27 0 43 -1t26 -11 q18 -14 21 -68q6 -68 6 -135q0 -102 -6 -146q-6 -53 -36 -62t-75 -11h-74z" />
<glyph unicode="C" horiz-adv-x="768" d="M82 348q0 -63 6 -127.5t45 -120.5q12 -18 33.5 -39.5t52.5 -39t73 -28.5t97 -11q57 0 100 12t75 31.5t53.5 42t33.5 41.5q35 53 43 106t11 113v270h-193v-281q0 -41 -5 -81.5t-42 -67.5q-23 -16 -43.5 -18.5t-30.5 -2.5q-41 0 -63.5 12.5t-33.5 31t-14.5 39t-3.5 34.5 q-2 12 -2 25v24v799q0 41 4.5 84t38.5 74q12 10 30 17t48 7q47 0 72 -19.5t35 -44t10 -48.5v-37v-223h193v184q0 53 -4.5 102t-26.5 99q-10 27 -27.5 50t-40.5 40q-29 23 -75 43t-125 20q-35 0 -63 -4t-58 -14q-70 -23 -109 -64t-59.5 -86t-25.5 -86t-5 -61q-4 -25 -4 -49 v-49v-699z" />
<glyph unicode="D" horiz-adv-x="724" d="M80 0h366q16 0 44 1t58 12.5t55.5 38t37.5 79.5q4 20 7 47t3 72v962q0 53 -8 102.5t-53 88.5q-23 18 -47.5 27.5t-47 12.5t-40.5 3h-25h-350v-1446zM270 178v1092h111q6 0 17.5 -1t23.5 -6.5t21.5 -16.5t13.5 -34q2 -10 2 -22v-21v-911q0 -51 -14.5 -64.5t-47.5 -15.5 h-127z" />
<glyph unicode="E" horiz-adv-x="598" d="M86 0h477v182h-282v480h251v180h-253v424h284v180h-477v-1446z" />
<glyph unicode="F" horiz-adv-x="598" d="M86 0h193v672h274v176h-277v420h306v178h-496v-1446z" />
<glyph unicode="G" horiz-adv-x="724" d="M82 330q0 -41 2 -82t11 -79t28.5 -74t54.5 -64q47 -39 92 -46.5t68 -7.5q41 0 69.5 9.5t50 23t35 28.5t23.5 30l19 -68h114v770h-305v-176h117v-328q0 -29 -6 -61.5t-35 -52.5q-16 -10 -31.5 -12.5t-23.5 -2.5q-37 -2 -55.5 15.5t-24.5 29.5q-10 18 -12.5 51t-2.5 78v832 q0 35 3 78t36 65q8 6 21.5 11.5t36.5 5.5q33 0 50 -12.5t24.5 -29t9.5 -34t2 -25.5v-22t2 -23v-164h176v152q0 45 -2 78.5t-7.5 59.5t-14.5 45.5t-23 39.5q-25 35 -56.5 54.5t-61.5 28.5t-54.5 10t-38.5 1q-68 0 -115 -18.5t-77.5 -45t-48 -58t-26.5 -56.5q-16 -43 -20 -92 t-4 -137v-725z" />
<glyph unicode="H" horiz-adv-x="724" d="M80 0h190v672h176v-672h191v1446h-191v-588h-176v588h-190v-1446z" />
<glyph unicode="I" horiz-adv-x="342" d="M76 0h188v1446h-188v-1446z" />
<glyph unicode="J" horiz-adv-x="598" d="M14 8q74 -12 121 -15t82 -3q12 0 47 1t75 13t80 40t64 81q27 53 31 125t4 192v1004h-190v-1043q-2 -59 -3 -108t-8 -70q-12 -47 -45.5 -59t-76.5 -12q-20 0 -70.5 5t-108.5 23z" />
<glyph unicode="K" horiz-adv-x="724" d="M80 0h190v676q10 -29 18.5 -55.5t18.5 -53.5l215 -567h193l-283 729l240 717h-195l-172 -553q-10 -33 -18 -64.5t-17 -62.5q2 27 2 51v55v574h-192v-1446z" />
<glyph unicode="L" horiz-adv-x="598" d="M88 0h506v178h-315v1268h-191v-1446z" />
<glyph unicode="M" horiz-adv-x="1024" d="M86 0h178v852q-4 168 -12 330h18l4 -66t7 -67q4 -39 9 -77t9 -79l129 -893h162l127 922q8 66 14 130t14 130h17q-4 -53 -4 -105q0 -49 -2 -102v-975h176v1446h-281l-108 -735q-4 -29 -7.5 -56.5t-7.5 -56.5q-4 -49 -5 -98t-3 -99l-16 -2q0 68 -2 112t-5 77t-8.5 61.5 t-11.5 65.5l-119 731h-272v-1446z" />
<glyph unicode="N" horiz-adv-x="768" d="M84 0h178l-16 834l-6 124l-11 127h11l237 -1085h211v1446h-180l10 -744l6 -120q4 -53 9.5 -103.5t11.5 -101.5h-13q-8 35 -15 71.5t-15 71.5l-213 926h-205v-1446z" />
<glyph unicode="O" horiz-adv-x="768" d="M80 332q0 -61 2 -90t12 -62q12 -43 31.5 -73.5t43.5 -51t45.5 -33t35.5 -18.5q37 -14 72.5 -16t48.5 -2q16 0 55 2t84 17t88 50t66 99q16 41 19 85t5 85v688q-2 121 -7 188.5t-36 120.5q-6 12 -21.5 33.5t-43.5 44.5q-27 20 -55.5 32.5t-54.5 17.5t-46.5 6t-32.5 1 q-78 0 -125 -21.5t-73 -41.5q-43 -33 -66 -72t-33 -82t-12 -90t-2 -96v-721zM270 264v31v774q0 82 4.5 129t42.5 72q20 14 41 17t29 3q39 0 58.5 -14t29.5 -29q16 -27 19.5 -69.5t3.5 -108.5v-729q0 -33 -1 -67.5t-11.5 -63.5t-35 -47.5t-69.5 -18.5q-94 0 -107 95 q-4 14 -4 26z" />
<glyph unicode="P" horiz-adv-x="681" d="M84 0h186v655h191q57 2 89 7.5t54 27.5q35 33 41 87t8 147v274q-2 47 -4 100.5t-33 92.5q-18 25 -43.5 36t-49 15t-42.5 4h-24h-373v-1446zM272 827v443h117q20 0 41 -5t27 -30q4 -10 4 -37v-307q-2 -37 -15.5 -50.5t-52.5 -13.5h-121z" />
<glyph unicode="Q" horiz-adv-x="768" d="M80 264q0 -31 9 -70.5t30.5 -80.5t64.5 -72q18 -12 40 -22.5t65 -22.5q2 -49 8 -93t22.5 -81t49 -63.5t88.5 -39.5q41 -8 92 -8t92 2v176q-47 -6 -92 -6q-41 0 -64.5 14.5t-27.5 57.5v39q20 4 32.5 6t32.5 10q12 4 36 16.5t50 36.5q29 29 44.5 63t22.5 65.5t9 56t2 37.5 q0 23 1 44t1 44v680q0 39 -1 80t-7 80.5t-21.5 77.5t-42.5 71q-29 35 -60.5 53.5t-61 27.5t-55 11t-42.5 2q-14 0 -37.5 -1t-52 -8t-60.5 -21.5t-63 -41.5q-55 -47 -72.5 -96t-21.5 -75.5t-6 -57.5t-3 -58.5t-1 -47.5v-21v-719v-45zM270 305v854q2 4 2 23q0 20 9 39 q12 35 40.5 52t65.5 17q41 0 62.5 -15t33 -35.5t13.5 -41t2 -33.5q0 -12 1 -24.5t1 -24.5v-772q-2 -72 -8.5 -116t-34.5 -66q-16 -12 -36 -16.5t-38 -4.5q-53 2 -75.5 23.5t-28.5 44.5q-4 12 -5.5 36.5t-3.5 59.5z" />
<glyph unicode="R" horiz-adv-x="724" d="M84 0h190v666h78q16 -2 31.5 -5.5t30.5 -13.5q18 -16 24 -40.5t11 -51.5q4 -37 5 -75t3 -74v-103q0 -51 1 -86t4 -66.5t8 -65.5t15 -85h199q-12 33 -19.5 59.5t-10.5 55t-5 68.5t-2 102v157q0 90 -5 140.5t-30 89.5q-23 35 -51.5 44t-66.5 13v10h24q18 0 39 6.5t40 21.5 t32 44q10 25 14 55.5t8 59.5q2 43 3 86t1 84q0 152 -12 207q-10 49 -31.5 76.5t-47 41t-52.5 17.5t-45 6q-16 2 -35 2h-37h-311v-1446zM276 825v447h97q29 0 44 -1t25 -11q18 -14 21 -58q2 -23 3 -46t1 -46q0 -76 -2 -135.5t-8 -85.5q-10 -39 -32 -51.5t-58 -12.5h-91z" />
<glyph unicode="S" horiz-adv-x="681" d="M66 289q2 -63 10 -120.5t53 -109.5q23 -29 73 -57.5t138 -28.5q47 0 78 7.5t49 15.5q61 27 93 77t47.5 100t17.5 91t2 53q0 31 -3 68t-15.5 80t-35 93t-59.5 110q-33 51 -63 94q-23 33 -43.5 63.5t-40.5 63.5q-25 37 -42.5 69.5t-29.5 66.5t-18.5 71t-6.5 82q0 25 2 51 t11.5 47.5t28 35t53.5 13.5q31 0 46 -13.5t21 -29.5t7 -32.5t1 -22.5v-256h174v256q-2 43 -5 65.5t-9 42.5q-16 53 -49 82t-67.5 41t-66.5 14.5t-46 2.5q-61 0 -101.5 -12.5t-62.5 -26.5q-45 -27 -87 -93.5t-42 -185.5q0 -63 13 -117.5t30.5 -97.5t36 -74.5t30.5 -50.5 q41 -70 87.5 -134.5t86.5 -135.5q39 -68 54.5 -121t15.5 -131q0 -25 -1 -54.5t-9 -55t-27.5 -43t-54.5 -17.5q-23 0 -37 7t-20 11q-23 16 -32 42t-9 79v264h-176v-239z" />
<glyph unicode="T" horiz-adv-x="681" d="M23 1276h219v-1276h194v1276h226v170h-639v-170z" />
<glyph unicode="U" horiz-adv-x="768" d="M82 317q2 -66 7 -102.5t17 -67.5q23 -59 61 -94t78 -51t76.5 -20.5t55.5 -4.5q20 0 61 4.5t86 25t85 60t61 111.5q6 25 10 53.5t6 53t2 43.5v22v1096h-188v-1106q-2 -72 -7.5 -114t-35.5 -68q-20 -16 -42 -19.5t-32 -3.5q-45 0 -67.5 19.5t-33 44t-11.5 48t-1 34.5 q-2 12 -2 22v25v1118h-186v-1129z" />
<glyph unicode="V" horiz-adv-x="681" d="M12 1446l221 -1446h226l221 1446h-188l-103 -817q-6 -47 -12 -93.5t-10 -93.5q-6 -74 -7 -149h-20q-2 55 -4 91t-5 68.5t-7.5 69.5t-12.5 92l-108 832h-191z" />
<glyph unicode="W" horiz-adv-x="980" d="M10 1446l162 -1446h219l78 811q4 57 4 113v114h16v-59q0 -31 3 -59q0 -35 2 -67t4 -65l82 -788h219l168 1446h-189l-69 -832q-4 -31 -6.5 -61.5t-4.5 -60.5q-4 -51 -4 -103v-100h-14q-2 29 -2 53v55q-4 41 -7 81t-7 81l-97 887h-174l-88 -887l-6 -86q-3 -38 -3 -75v-18 q1 -46 1 -93h-14v61q0 33 -2 64q-2 33 -4.5 63.5t-4.5 63.5l-73 907h-189z" />
<glyph unicode="X" horiz-adv-x="681" d="M10 0h189l114 395q4 35 7.5 68t7.5 67h16q2 -33 6 -64.5t8 -64.5l121 -401h193l-234 748l213 698h-190l-101 -326q-6 -29 -10 -57.5t-6 -83.5h-18q0 25 -1 40t-3.5 28.5t-4.5 29t-8 37.5l-106 332h-191l219 -701z" />
<glyph unicode="Y" horiz-adv-x="681" d="M8 1446l219 -842v-604h207v606l240 840h-193l-90 -320q-14 -59 -23.5 -100t-13.5 -72.5t-7 -60.5t-5 -62h-14q-6 61 -9.5 98.5t-8.5 65t-10 53t-13 62.5l-84 336h-195z" />
<glyph unicode="Z" horiz-adv-x="598" d="M31 0h512v174h-310l340 1147v125h-460v-168h260l-342 -1151v-127z" />
<glyph unicode="[" horiz-adv-x="555" d="M121 -401h344v94h-172v1706h176v102h-348v-1902z" />
<glyph unicode="\" horiz-adv-x="724" d="M53 1446l455 -1446h164l-455 1446h-164z" />
<glyph unicode="]" horiz-adv-x="555" d="M90 -301v-100h346v1902h-344v-96h174v-1706h-176z" />
<glyph unicode="^" horiz-adv-x="1492" d="M291 688h196l263 533l254 -533h198l-368 758h-158z" />
<glyph unicode="_" horiz-adv-x="1024" d="M-20 -281v-161h1064v161h-1064z" />
<glyph unicode="`" horiz-adv-x="425" d="M-172 1430l258 -248h98l-147 248h-209z" />
<glyph unicode="a" d="M70 172q0 -16 1 -47t15 -61.5t46 -53t91 -22.5t93 26.5t67 73.5q8 -39 13 -52t16 -36h174q-12 27 -18.5 56.5t-8.5 55t-2 44.5v28v697q0 29 -2 56.5t-12 55.5q-10 31 -27.5 48.5t-28.5 25.5q-47 37 -99 43t-69 6q-55 0 -94 -12t-65.5 -31.5t-42 -43t-23.5 -46.5 q-8 -25 -10 -50.5t-2 -51.5v-136h168v154q0 8 1 21.5t7 27t20.5 23.5t43.5 10q27 0 41 -9t20 -23.5t8 -29t2 -22.5v-164q-10 -16 -22.5 -28.5t-42.5 -34.5l-158 -99q-35 -25 -54.5 -44t-29.5 -40.5t-13 -49t-3 -68.5v-197zM233 248v112q0 27 5.5 46.5t23.5 39.5 q8 10 13.5 14.5t15.5 10.5l63 43q16 12 21.5 15t15.5 14v-256q-2 -37 -8 -82t-39 -72q-4 -4 -16.5 -9t-28.5 -5q-41 0 -57 39q-6 16 -7.5 35.5t-1.5 54.5z" />
<glyph unicode="b" d="M80 0h92q8 33 14.5 47t22.5 45q8 -16 14 -28.5t19 -28.5q33 -41 68.5 -47t56.5 -6q14 0 39.5 4t53 17t52.5 39t39 71q12 39 14 71.5t2 44.5v695q0 4 -2 28.5t-6 46.5q-12 39 -32.5 61.5t-44 34t-46 14.5t-35.5 3h-10q-72 0 -121 -57q-10 -10 -26 -35v426h-164v-1446z M244 246v614q2 29 8 52.5t31 39.5q14 10 27.5 12.5t19.5 2.5q29 0 44 -12.5t21 -28t6 -29.5v-20v-652v-14t-4 -22.5t-12 -25.5t-23 -22q-12 -8 -23 -9t-17 -1q-33 0 -49.5 14.5t-20.5 26.5q-6 12 -7 28.5t-1 45.5z" />
<glyph unicode="c" horiz-adv-x="598" d="M74 217q2 -49 5 -72.5t13 -48.5q18 -45 52 -68.5t69 -33.5t63.5 -11t38.5 -1q35 0 60.5 4t40.5 8q37 12 62.5 30.5t42 40t24.5 41t12 33.5q8 31 8 58v39v200h-164v-205q0 -29 -5 -60.5t-38 -45.5q-14 -4 -25 -6t-18 -2q-4 0 -15 2t-24 6q-27 12 -32.5 32.5t-7.5 45.5v665 q2 27 5 53.5t27 43.5q20 12 51 12h17q10 0 21.5 -4t22.5 -13.5t17 -27.5q4 -10 4 -27v-16v-187h166v152q0 35 -2 64.5t-14 62.5q-10 25 -34.5 59.5t-84.5 57.5q-35 14 -67.5 16t-42.5 2q-14 0 -47 -3t-69 -17.5t-70 -44t-50 -82.5q-8 -23 -10 -42.5t-2 -60.5v-649z" />
<glyph unicode="d" d="M82 150q0 -23 7 -48.5t23.5 -52t49.5 -45.5q27 -14 51.5 -17t34.5 -3q35 0 60.5 11t44 25.5t29.5 30t17 25.5v-76h166v1446h-166v-416q-33 35 -66.5 58.5t-84.5 23.5q-35 0 -57.5 -9t-32.5 -16q-31 -20 -47.5 -46.5t-22.5 -53t-6 -49.5v-29v-729v-30zM244 219v629 q0 29 3 56.5t29 43.5q14 10 27.5 11.5t20.5 1.5q3 1 7 1q5 0 12 -2q13 -2 28 -14q20 -16 24 -39.5t4 -48.5v-598q0 -31 -4 -62.5t-33 -52.5q-8 -4 -17 -8t-28 -6q-29 0 -43 11.5t-21 25.5t-8 28.5t-1 22.5z" />
<glyph unicode="e" d="M80 209q2 -25 3 -46.5t9 -45.5q16 -49 49 -77t68 -41t65.5 -15t42.5 -2t44 3t68 16t68.5 42t51.5 80q14 41 15 78t3 49v158h-168v-193v-27q0 -16 -7 -32.5t-24.5 -28.5t-50.5 -12q-29 0 -44 10t-22 24.5t-8 30t-1 23.5v309h325v354q-2 33 -4 58.5t-12 56.5 q-18 47 -51 73.5t-68 40t-64.5 16.5t-41.5 3q-59 0 -98.5 -15.5t-59.5 -31.5q-53 -37 -66.5 -82t-15.5 -67q-4 -31 -5 -61t-1 -60v-588zM242 647v213q0 29 3 58.5t31 48.5q14 8 30 10t20 2q25 0 40 -8t22 -19.5t9 -24t2 -20.5q2 -8 2 -16v-12v-232h-159z" />
<glyph unicode="f" horiz-adv-x="382" d="M18 958h91v-958h167v958h97v136h-94v143q0 51 25 59q17 5 43 5q10 0 22 -1v140q-53 6 -109 6q-41 0 -81 -11.5t-56 -54.5q-10 -23 -11 -46t-1 -48v-190h-93v-138z" />
<glyph unicode="g" d="M74 176q2 -18 5 -50t18.5 -62.5t49 -53t95.5 -22.5q25 0 58.5 8t72.5 49q6 8 12 14.5t10 14.5l2 -142q-2 -23 -7 -43t-28 -34q-14 -8 -24 -9.5t-19 -1.5q-41 0 -57 18.5t-20 35.5q-4 10 -3 20t1 12h-164v-18q0 -65 26 -104q29 -44 69 -66.5t81 -28.5t61 -6q72 0 138.5 33 t93.5 106q12 35 14 70t2 45v1137h-162v-78q-6 10 -12 19.5t-12 17.5q-53 59 -133 59q-43 0 -73 -14.5t-48.5 -34.5t-27.5 -41.5t-11 -36.5q-4 -18 -5 -37.5t-3 -38.5v-737zM236 233v21v541q0 41 1 71.5t5 46.5q10 37 33.5 45.5t37.5 8.5q29 0 45.5 -12.5t24.5 -28t10 -30.5 t2 -24q2 -10 2 -22v-23v-567q0 -23 -2 -44t-11 -38.5t-25.5 -29t-45.5 -11.5q-27 0 -42 8.5t-22 19.5t-9 24.5t-2 23.5q-2 10 -2 20z" />
<glyph unicode="h" d="M82 0h162v850q0 6 1 23.5t8 38t23.5 36t51.5 15.5q8 0 19 -2.5t22.5 -8.5t19.5 -18t12 -35q2 -10 2 -18v-19v-862h166v879q0 55 -9 110t-58 94q-14 10 -37 20.5t-64 10.5q-35 0 -61.5 -10t-45 -24.5t-30.5 -30t-20 -25.5v422h-162v-1446z" />
<glyph unicode="i" horiz-adv-x="342" d="M88 0h164v1096h-164v-1096zM90 1223h164v217h-164v-217z" />
<glyph unicode="j" horiz-adv-x="342" d="M-37 -285q16 -2 31 -2h31q80 0 141 28t84 112q10 39 10 81v48v1114h-166v-1166q0 -23 -11 -49t-63 -26q-14 0 -27 1t-28 3zM94 1221h166v219h-166v-219z" />
<glyph unicode="k" horiz-adv-x="598" d="M84 0h166v418l33 86l129 -504h174l-185 678l191 418h-178l-164 -437v787h-166v-1446z" />
<glyph unicode="l" horiz-adv-x="342" d="M86 0h168v1446h-168v-1446z" />
<glyph unicode="m" horiz-adv-x="980" d="M86 0h164v852q0 6 1 24.5t8 38t23.5 36t51.5 16.5q25 0 39 -8.5t21 -18.5t10.5 -22.5t3.5 -20.5v-18t2 -19v-860h163v850q0 29 3.5 55.5t29.5 44.5q10 8 24.5 11.5t26.5 3.5q6 0 29 -3.5t35 -25.5q8 -14 9 -34.5t1 -37.5v-864h168v879q0 55 -7 110t-58 92q-31 25 -62 29 t-43 4q-41 0 -69.5 -12t-48 -28.5t-32 -35t-20.5 -30.5q-6 14 -15 32.5t-26.5 35t-45.5 28.5t-69 12q-66 0 -97.5 -27.5t-45.5 -50.5q-4 -4 -6 -8t-6 -8v76h-162v-1098z" />
<glyph unicode="n" d="M80 0h164v829q0 31 3 64t29 55q16 12 31 15.5t23 3.5q20 0 37.5 -9.5t25.5 -29.5q8 -18 8 -68v-860h168v889q0 51 -8 104.5t-53 89.5q-31 23 -60.5 28t-44.5 5q-35 0 -61.5 -10t-46 -25.5t-32.5 -31t-19 -23.5l-2 70h-162v-1096z" />
<glyph unicode="o" d="M78 295q0 -37 1 -76t9 -76t27.5 -68.5t56.5 -56.5q45 -29 89 -32.5t61 -3.5q57 0 97 13t66.5 32.5t43 44t24.5 49.5q10 33 12 59.5t4 61.5v616q0 35 -2 65.5t-14 63.5q-18 49 -51 74.5t-68 37t-64.5 13.5t-41.5 2q-39 0 -61.5 -4t-39.5 -10q-10 -4 -30.5 -12.5 t-42.5 -30.5q-29 -25 -44.5 -55.5t-22.5 -63.5t-8 -67.5t-1 -69.5v-506zM242 190v25v645q0 45 6 67.5t28 39.5q14 10 31 11t21 1q47 0 60 -22.5t18 -43.5q0 -10 1 -19t1 -20v-647q-2 -47 -16.5 -78.5t-72.5 -31.5q-33 0 -49 12t-22 28.5t-6 32.5z" />
<glyph unicode="p" d="M76 -297h166v377q29 -43 64.5 -67.5t88.5 -24.5q12 0 42 4t59 26q47 37 56 88.5t11 104.5v698v31t-6 49.5t-21.5 54t-46.5 46.5q-29 16 -53 20t-35 4q-37 0 -63.5 -10t-45 -24.5t-30.5 -31t-20 -26.5v76h-166v-1395zM242 219v14v603q0 29 3 62.5t31 53.5q14 10 28.5 13.5 t21.5 3.5q27 0 41 -9.5t21 -24.5t9 -34.5t2 -40.5v-620q0 -4 -1 -21.5t-7 -36t-22.5 -33t-46.5 -14.5q-18 0 -28.5 5t-19.5 10q-14 8 -20 21t-9 25.5t-3 22.5z" />
<glyph unicode="q" d="M74 176q2 -49 12 -93t57 -73q39 -20 84 -20q37 0 64.5 10t47 24.5t33 30t21.5 25.5v-377h166v1395h-104q-4 -12 -7.5 -21.5t-7.5 -18.5t-11 -20.5t-19 -29.5q-6 10 -19.5 28.5t-33 36t-48 30.5t-67.5 13q-10 0 -37 -3t-53 -19q-31 -18 -46.5 -45t-22.5 -56.5t-8 -61.5 t-1 -63v-692zM236 207v20v641q0 6 1 22.5t7 33t21.5 29t45.5 12.5q33 0 50.5 -13.5t24.5 -34t8 -46t1 -48.5v-544q-2 -31 -6 -69t-33 -60q-14 -10 -30.5 -12.5t-20.5 -2.5q-29 0 -43 12.5t-20 29t-6 30.5z" />
<glyph unicode="r" horiz-adv-x="468" d="M80 0h164v735q2 45 6 97.5t39 87.5q23 23 43 25.5t30 2.5q39 0 63 -11t36 -22v191q-10 2 -21.5 3t-23.5 1q-72 0 -107 -41t-61 -96v125h-168v-1098z" />
<glyph unicode="s" horiz-adv-x="598" d="M49 311q0 -37 1 -76.5t9.5 -77.5t25.5 -72t52 -58q47 -35 93 -42.5t65 -7.5q61 0 97 16.5t59 35.5q37 29 57 66.5t29.5 73.5t10.5 64.5t1 40.5q0 86 -26.5 152t-86.5 129q-25 29 -53 53l-76 74q-41 43 -64.5 78t-23.5 98q0 41 14.5 72t63.5 31q33 0 50.5 -12.5t26.5 -37 t11 -60.5t2 -81l152 -2q0 94 -6.5 147.5t-28.5 96.5q-20 37 -49 57.5t-57.5 29.5t-52 11t-36.5 2q-66 0 -104.5 -17.5t-61.5 -35.5q-31 -27 -46 -60.5t-22 -65.5t-8 -56.5t-1 -32.5q0 -74 18 -126t68 -110q16 -16 29.5 -31.5t29.5 -31.5l88 -88q27 -29 51.5 -62t32.5 -73 q4 -12 5 -23.5t1 -34.5q0 -49 -7 -76.5t-28 -44.5q-4 -4 -17 -11t-36 -7q-35 0 -53.5 13.5t-27.5 31.5t-11 36.5t-2 29.5q-2 18 -2 36v39v92h-156v-92z" />
<glyph unicode="t" horiz-adv-x="382" d="M14 958h99v-788q0 -25 1 -49.5t7 -47t20.5 -41t40.5 -28.5q14 -6 31.5 -9t33 -5t27.5 -2h15q37 0 57.5 3t36.5 7l2 125h-35q-29 0 -43 8t-20 20.5t-7 25.5t-1 24v757h94v136h-92v239h-164v-237h-103v-138z" />
<glyph unicode="u" d="M74 207q0 -53 8 -105.5t55 -89.5q29 -23 59.5 -27.5t43.5 -4.5q37 0 63.5 10t46 25.5t32.5 29.5t19 25v-70h164v1096h-164v-830q0 -29 -3 -62.5t-29 -56.5q-16 -12 -30.5 -14t-23.5 -2q-20 0 -37.5 9.5t-27.5 27.5q-4 12 -5 27.5t-1 42.5v858h-170v-889z" />
<glyph unicode="v" horiz-adv-x="555" d="M14 1096l162 -1096h197l170 1096h-168l-74 -611q-4 -31 -6 -61.5t-4 -61.5q-2 -37 -3 -73.5t-1 -73.5h-17q-2 41 -3 82t-3 82q-4 39 -7 78t-7 80l-68 559h-168z" />
<glyph unicode="w" horiz-adv-x="811" d="M16 1096l129 -1096h183l53 436q4 29 5 58.5t3 58.5q2 37 2 72v71h17v-82t2 -82q2 -47 7 -92t9 -92l43 -348h182l137 1096h-161l-41 -510q-4 -33 -5 -63.5t-6 -61.5q-4 -57 -4 -115q0 -55 2 -113l-16 -2q-4 66 -10 131.5t-12 131.5l-74 602h-119l-76 -590 q-18 -137 -30 -273h-13v103q0 53 -2 106.5t-6 106.5l-41 547h-158z" />
<glyph unicode="x" horiz-adv-x="598" d="M8 0h160l90 295q23 76 37 149h12q4 -29 9.5 -56.5t11.5 -55.5l80 -332h172l-189 594l170 502h-164l-39 -150q-8 -29 -14 -54.5t-12 -53.5q-8 -35 -13.5 -68t-11.5 -68l-12 -2q-6 49 -12.5 83t-12.5 59.5t-12 48t-14 49.5l-43 160h-164l170 -510z" />
<glyph unicode="y" horiz-adv-x="555" d="M8 1096l164 -1076q4 -34 4 -56v-14q-2 -24 -16 -44q-20 -29 -52 -33t-63 -4v-158q23 -2 43.5 -3t40.5 -1q41 0 68.5 6t42.5 13q29 12 47 34.5t27.5 45t13.5 41t6 26.5l209 1219h-170l-58 -459q-6 -47 -11 -93t-9 -94q-4 -55 -6 -110t-4 -113h-17q-4 55 -9 109.5 t-11 109.5l-72 654h-168z" />
<glyph unicode="z" horiz-adv-x="555" d="M23 0h503v156h-325l334 784v158h-443v-154h264l-333 -788v-156z" />
<glyph unicode="{" horiz-adv-x="724" d="M141 506q35 -14 57.5 -27.5t45.5 -48.5q16 -25 24 -51.5t12.5 -59t5.5 -73.5t1 -94v-265q0 -35 1 -76.5t7 -82.5t21.5 -81t45.5 -73q47 -51 116 -67.5t188 -18.5l2 12q-43 10 -80 26.5t-70 55.5q-37 43 -45 100.5t-10 157.5v340q0 49 -2 85t-7 63.5t-15.5 50t-26.5 47.5 q-29 37 -57.5 52.5t-69.5 31.5q41 14 61.5 24.5t36.5 26.5q27 25 42 54.5t22.5 57t8.5 49t1 30.5q4 57 4 112v113v201q2 102 9 161.5t48 102.5q33 37 69 52t79 26l2 12q-16 0 -40 -2t-48.5 -3t-48 -4t-37.5 -5q-14 -4 -45 -15.5t-66 -42.5q-33 -29 -51.5 -59.5t-27.5 -65.5 t-12 -70.5t-5 -72.5v-344q-2 -98 -7.5 -156.5t-33.5 -103.5q-23 -35 -46.5 -47.5t-58.5 -22.5v-12z" />
<glyph unicode="|" horiz-adv-x="468" d="M152 -512h165v2044h-165v-2044z" />
<glyph unicode="}" horiz-adv-x="724" d="M59 -500v-12q45 2 79 4t59.5 5t48 9.5t45.5 16.5q45 23 71.5 54.5t42 63t20.5 58.5t7 43q4 43 5 86t3 86v256q0 94 5.5 152.5t29.5 101.5q16 29 33.5 42t30.5 19q10 4 17 7.5t28 9.5v12q-29 10 -49.5 21.5t-42.5 39.5q-18 25 -29.5 51.5t-17 61.5t-6.5 78t-1 100v264 q0 57 -2 101.5t-9 79.5t-18.5 62.5t-29.5 51.5q-23 31 -51.5 50.5t-66.5 31t-87 17.5t-115 8v-12q8 -2 29 -8.5t45.5 -18.5t49 -31.5t42.5 -50.5q23 -41 30 -93t7 -140v-226q0 -100 2 -168.5t12 -111.5q2 -8 8.5 -24.5t17.5 -36t29.5 -40t47.5 -36.5q18 -10 38.5 -17.5 t22.5 -7.5q-27 -10 -50 -20.5t-44 -28.5q-29 -27 -45 -59.5t-23.5 -63.5t-9.5 -54.5t-2 -29.5q-2 -53 -2 -107v-104v-201q-2 -104 -11 -165.5t-50 -104.5q-33 -35 -68 -48t-76 -24z" />
<glyph unicode="~" horiz-adv-x="1492" d="M254 594l82 -148q18 25 37.5 48.5t42 44t50.5 33t62 12.5q27 0 54.5 -7.5t51 -16.5t40 -16t20.5 -9l62 -31q76 -35 116.5 -48.5t85.5 -15.5q37 0 68 8.5t55.5 20.5t41 24.5t26.5 20.5q39 29 57.5 50.5t32.5 37.5l-78 148q-4 -4 -20.5 -24.5t-43 -43.5t-60 -41t-72.5 -18 t-74 13t-70 30l-67 30q-53 25 -109.5 46.5t-118.5 23.5q-61 0 -107 -21.5t-80 -51t-54.5 -58.5t-30.5 -41z" />
<glyph unicode="&#xa1;" horiz-adv-x="382" d="M80 0h164v508l-37 471h-90l-37 -422v-557zM80 1167h164v265h-164v-265z" />
<glyph unicode="&#xa3;" horiz-adv-x="980" d="M39 135q0 -39 14.5 -66.5t39 -46t56 -26.5t64.5 -8q51 0 92 15t71 36.5t49 43t30 34.5q27 -23 57 -45q68 -47 112 -59.5t85 -12.5q80 0 121.5 33t58.5 61q27 49 30 124t-1 192h-166q0 -66 -1 -118t-6 -77q0 -6 -3 -17.5t-10 -22.5t-20.5 -20.5t-35.5 -9.5q-16 0 -39 8.5 t-45.5 19.5t-43 23.5t-34.5 20.5q16 41 35.5 94.5t19.5 149.5q0 35 -3 67.5t-17 98.5h160v137h-215q-39 94 -63.5 175t-24.5 183v27q0 20 5 45t18 49.5t40 40.5q23 14 40 16.5t28 2.5q18 0 51 -9.5t51 -58.5q12 -31 14 -90.5t4 -143.5h174q0 39 1.5 84t-3 89.5t-15.5 87.5 t-32 77q-39 66 -106.5 94.5t-140.5 28.5q-74 0 -126.5 -21.5t-87 -52t-55 -65.5t-30.5 -61q-12 -35 -17.5 -73t-5.5 -75q0 -59 10 -115.5t22.5 -103.5t26 -82t19.5 -51h-164v-137h215q25 -61 45.5 -122t20.5 -128q0 -33 -3.5 -52.5t-11.5 -48.5q-12 4 -54 14.5t-89 10.5 q-80 0 -125 -28.5t-64 -57.5q-16 -25 -19 -45.5t-3 -32.5zM141 133q0 23 20.5 41.5t67.5 18.5q37 0 71 -10.5t42 -14.5q0 -2 -7 -12.5t-16 -18.5q-23 -20 -54.5 -36.5t-59.5 -16.5q-35 -2 -49.5 17.5t-14.5 31.5z" />
<glyph unicode="&#xa4;" horiz-adv-x="1366" d="M86 223l123 -125l156 156q27 -16 55.5 -34.5t65 -34t84.5 -25.5t114 -10q63 0 110.5 10t84 25.5t65.5 33t53 33.5l156 -156l127 123l-158 156q20 31 36 56.5t28 52t20 55t15 63.5q6 49 6 98q0 61 -9.5 107.5t-24.5 83.5t-32.5 65.5t-36.5 55.5l156 155l-125 123 l-154 -153q-27 16 -56.5 34.5t-66 34t-83.5 25.5t-109 10q-98 0 -165.5 -24.5t-108.5 -49.5q-12 -8 -23.5 -15t-23.5 -15l-154 153l-123 -123l154 -155q-12 -16 -23.5 -33.5t-19.5 -34.5q-43 -78 -52.5 -148.5t-9.5 -99.5q0 -63 10.5 -111t25.5 -85t33.5 -67t37.5 -56z M301 698q0 109 57.5 206t169.5 145q53 23 94.5 26.5t63.5 3.5q61 0 110.5 -15t87.5 -39t63.5 -50.5t39.5 -44.5q29 -37 44.5 -73t22.5 -66.5t8 -55.5t1 -39q0 -55 -11.5 -101t-29.5 -81t-39.5 -61.5t-42.5 -44.5q-37 -35 -76 -53.5t-74.5 -29t-64.5 -12.5t-43 -2 q-61 0 -110.5 16.5t-88.5 39t-66.5 49t-41.5 47.5q-25 35 -40.5 71.5t-22.5 68.5t-9 57.5t-2 37.5z" />
<glyph unicode="&#xa6;" horiz-adv-x="468" d="M152 389v-780h165v780h-165zM152 631h165v780h-165v-780z" />
<glyph unicode="&#xa7;" horiz-adv-x="811" d="M66 207q0 -47 2 -92t14 -86t37.5 -76t70.5 -64q57 -37 112.5 -44t78.5 -7q18 0 50 2t70 13.5t77.5 36t74.5 67.5q47 57 55.5 109.5t8.5 80.5q0 72 -27.5 126.5t-81.5 101.5q94 88 123 162.5t29 134.5q0 23 -4 54.5t-18.5 65t-42 69.5t-74.5 67q-16 12 -40 24.5 t-44.5 22.5t-36 18t-17.5 8q-113 57 -162 115t-49 123q0 59 39 94t97 35q49 0 76.5 -19.5t41 -45t16.5 -51t3 -38.5q2 -20 1 -39.5t-3 -37.5l157 -2q0 16 1 30.5t1 30.5q0 49 -6 78t-14 51q-31 92 -106.5 135t-167.5 43q-96 0 -175 -44t-118 -136q-16 -39 -19.5 -70.5 t-3.5 -48.5q0 -37 12.5 -92t69.5 -121q12 -14 24.5 -26.5l24.5 -24.5q-16 -12 -42.5 -32.5t-51.5 -53.5t-42 -78t-17 -106q-2 -88 39 -157t112 -116q51 -35 105.5 -58.5t105.5 -55.5q66 -41 84.5 -84t18.5 -78q0 -66 -42 -103.5t-104 -37.5q-39 0 -63.5 11t-34.5 19 q-23 18 -34 42t-15 50.5t-3 53t3 51.5h-176zM246 684q0 23 4 37t8 22q16 41 45 66.5t66 48.5q47 -23 101 -50.5t85 -70.5q23 -29 28 -56.5t5 -39.5q0 -39 -16.5 -69.5t-37 -53t-40 -36t-25.5 -17.5q-80 41 -124 68.5t-71 64.5q-8 10 -18 30.5t-10 55.5z" />
<glyph unicode="&#xa8;" horiz-adv-x="425" d="M-96 1206h149v205h-149v-205zM168 1206h156v205h-156v-205z" />
<glyph unicode="&#xa9;" horiz-adv-x="1705" d="M125 725q0 -96 20.5 -176t50 -143.5t64.5 -110.5t64 -78q29 -29 77 -67.5t114.5 -73.5t150.5 -58.5t186 -23.5q123 0 242.5 39t228.5 129q131 109 194.5 258t65.5 299q0 78 -14.5 146.5t-36 125t-46 99.5t-44.5 71q-29 39 -79 90.5t-124 95.5t-170 74.5t-215 30.5 q-90 0 -165 -17.5t-134 -44t-103 -57t-75 -55.5q-61 -53 -94 -96t-50 -72q-16 -25 -34.5 -61.5t-35 -85t-27.5 -108.5t-11 -130zM190 723q0 137 52.5 259t142.5 211t211 141t260 52q70 0 128 -11t106.5 -29.5t84 -39t62.5 -38.5q98 -68 153.5 -150t83 -159.5t35 -142 t7.5 -95.5q0 -25 -5.5 -76t-25 -117.5t-58 -139.5t-106.5 -138q-27 -27 -70 -59.5t-102 -62.5t-133 -49.5t-162 -19.5q-102 0 -186 27t-150.5 64.5t-114 83t-75.5 81.5q-49 63 -76 126t-41 117t-17.5 97t-3.5 68zM383 725q0 -20 3 -59t17.5 -87.5t43 -102.5t79.5 -103 q37 -37 88 -66q84 -49 156 -57t100 -8q59 0 108.5 12t89.5 29.5t70.5 38t49 37t35 34t32.5 35.5l-114 100q-14 -16 -28.5 -30.5t-31.5 -28.5q-66 -51 -124 -62.5t-85 -11.5q-66 0 -116.5 19.5t-87.5 48.5t-59.5 61.5t-35.5 59.5q-10 20 -19 54t-11 85q0 66 17.5 116t44 87 t58 61.5t58.5 36.5q47 23 89 29t60 6q45 0 81 -10.5t63.5 -24.5t48 -31.5t35.5 -29.5q20 -18 43 -43l114 108q-20 20 -39.5 41t-41.5 39q-47 37 -93.5 57.5t-87.5 31.5t-73.5 13t-51.5 2q-96 0 -169.5 -27.5t-127 -68.5t-88 -87t-51.5 -83q-35 -74 -42 -135t-7 -86z" />
<glyph unicode="&#xab;" horiz-adv-x="681" d="M53 559l273 -244v205l-164 146l162 147v205l-271 -244v-215zM358 559l271 -237v200l-162 146l160 145v205l-269 -238v-221z" />
<glyph unicode="&#xac;" horiz-adv-x="1366" d="M0 518h1202v-518h164v680h-1366v-162z" />
<glyph unicode="&#xad;" horiz-adv-x="468" d="M59 582h363v172h-363v-172z" />
<glyph unicode="&#xae;" horiz-adv-x="1705" d="M125 725q0 -121 30.5 -217t74.5 -168t93.5 -121t84.5 -76q96 -72 209.5 -110.5t236.5 -38.5q39 0 103.5 8t140.5 33.5t157.5 77t153.5 137.5q57 68 92 137.5t53.5 132t23.5 114.5t5 85q2 121 -34 231.5t-107 208.5q-106 143 -259 218t-327 75q-117 0 -209 -28.5 t-161.5 -68.5t-118 -85t-76.5 -78q-23 -27 -51.5 -69t-54 -100t-43 -133t-17.5 -165zM190 723q0 113 30 202t73 155.5t90 110.5t80 69q59 43 118.5 68.5t111.5 38.5t94 16t69 3q113 0 201 -29.5t153.5 -70.5t109.5 -87t69 -79q45 -61 70.5 -120.5t38.5 -112.5t16.5 -96 t3.5 -70q0 -104 -32 -201.5t-88.5 -179.5t-137 -144.5t-181.5 -97.5q-76 -27 -134 -33t-89 -6q-102 0 -196.5 29t-175.5 83t-144.5 130t-99.5 170q-49 119 -50 252zM545 268h164v414h57q57 -2 84 -6t55 -21q33 -18 47.5 -49t24.5 -94t17 -122.5t36 -119.5l189 -2 q-20 37 -34 84t-28 133q-4 29 -8 58.5t-13.5 59.5t-23.5 55.5t-41 46.5q-14 10 -55 28q25 6 40 12.5t25 10.5q41 20 65.5 46.5t38 54.5t17.5 53.5t4 41.5q0 53 -18.5 90t-30.5 54q-29 37 -65.5 56t-77.5 26.5t-85 8.5t-85 1h-299v-920zM709 811v250h106q12 0 24.5 1t22.5 1 q47 0 75 -4t48 -15q39 -23 48 -57.5t9 -46.5q0 -20 -5 -36.5t-9 -20.5q-18 -37 -53 -51.5t-74 -18.5q-14 -2 -29 -2h-26h-137z" />
<glyph unicode="&#xb0;" horiz-adv-x="724" d="M33 1217q0 -68 25.5 -128.5t69.5 -105.5t104.5 -71.5t129.5 -26.5q96 0 177.5 52t122.5 138q23 47 26.5 84t3.5 58q0 68 -25.5 128t-70.5 105t-104.5 70.5t-129.5 25.5q-68 0 -128 -25.5t-105 -70.5t-70.5 -105.5t-25.5 -127.5zM201 1221q0 66 46.5 113.5t114.5 47.5 t115 -48t47 -113q0 -68 -47 -115t-115 -47q-66 0 -113.5 47t-47.5 115z" />
<glyph unicode="&#xb1;" horiz-adv-x="1024" d="M63 0h898v162h-898v-162zM63 698h371v-366h162v366h365v164h-365v367h-162v-367h-371v-164z" />
<glyph unicode="&#xb4;" horiz-adv-x="425" d="M35 1182h94l256 248h-203z" />
<glyph unicode="&#xb6;" horiz-adv-x="1366" d="M178 1036q0 -76 18.5 -130t34.5 -81q16 -29 35 -48l29 -29q51 -47 99 -64.5t108 -30.5v-995h119v1677h294v-1677h119v1677h70v111h-471q-78 -2 -119 -7t-82 -22q-41 -14 -71.5 -34.5t-54 -42t-39 -41t-23.5 -31.5q-23 -37 -36 -73t-19.5 -66.5t-8.5 -55t-2 -37.5z" />
<glyph unicode="&#xb7;" horiz-adv-x="382" d="M55 592q0 -35 19.5 -70t54.5 -53q8 -4 24.5 -8t39.5 -4q57 -2 95 35t42 94q2 59 -37 104t-98 45t-99.5 -43t-40.5 -100z" />
<glyph unicode="&#xb8;" horiz-adv-x="425" d="M-63 -350q14 0 27 -1t26 -1q80 0 128 10t83 27q59 27 78.5 60.5t19.5 64.5q0 25 -8 40t-15 23q-27 33 -65.5 41t-77.5 10l88 162h-96l-148 -246q57 -4 93 -8t53 -31q8 -8 8 -20q0 -8 -4 -19.5t-18 -21.5q-33 -23 -83.5 -26t-86.5 -1z" />
<glyph unicode="&#xbb;" horiz-adv-x="681" d="M55 811l164 -145l-162 -146v-205l271 238v221l-273 238v-201zM358 813l164 -145l-160 -148v-205l269 244v217l-273 242v-205z" />
<glyph unicode="&#xbf;" horiz-adv-x="681" d="M47 285q0 -59 12.5 -102.5t32 -75t43 -52t43.5 -32.5q41 -23 82 -27t57 -4q10 0 34 1t53.5 9t60.5 26.5t55 51.5q25 31 36 67.5t15 70.5t4 58v33q-2 23 -2 45v45h-155v-77v-41t-4 -46.5t-12.5 -44t-27 -33t-33.5 -14.5t-24 -2q-31 0 -49 11.5t-27.5 27t-12.5 30.5t-5 26 q-2 14 -2 26v27q0 53 7.5 88t15.5 55q6 18 14 39t15.5 39t13.5 31.5t8 17.5q27 57 47 100t34.5 77t24 63.5t15.5 64.5q4 25 5 46.5t-1 68.5h-144q0 -55 -7 -92t-24.5 -75t-44 -87t-67.5 -129q-8 -16 -22.5 -46t-28.5 -71t-24.5 -90t-10.5 -104zM262 1167h166v265h-166v-265z " />
<glyph unicode="&#xc0;" horiz-adv-x="681" d="M12 0h187l32 266h218l36 -266h187l-223 1446h-232zM45 1833l258 -248h100l-149 248h-209zM252 442l61 498q4 59 6.5 116.5t4.5 117.5h16q2 -39 2 -78q0 -37 2 -78q2 -18 3 -36.5t5 -37.5l72 -502h-172z" />
<glyph unicode="&#xc1;" horiz-adv-x="681" d="M12 0h187l32 266h218l36 -266h187l-223 1446h-232zM252 442l61 498q4 59 6.5 116.5t4.5 117.5h16q2 -39 2 -78q0 -37 2 -78q2 -18 3 -36.5t5 -37.5l72 -502h-172zM262 1587h98l256 250h-206z" />
<glyph unicode="&#xc2;" horiz-adv-x="681" d="M12 0h187l32 266h218l36 -266h187l-223 1446h-232zM100 1585h111l131 148l123 -146h117l-185 246h-114zM252 442l61 498q4 59 6.5 116.5t4.5 117.5h16q2 -39 2 -78q0 -37 2 -78q2 -18 3 -36.5t5 -37.5l72 -502h-172z" />
<glyph unicode="&#xc3;" horiz-adv-x="681" d="M12 0h187l32 266h218l36 -266h187l-223 1446h-232zM88 1610h53q4 10 5 16t6 14q18 33 40.5 42.5t38.5 9.5q25 0 47.5 -9.5t28.5 -13.5l49 -22q4 -2 28 -11.5t50 -9.5q37 0 59.5 19.5t41.5 48.5q18 27 32.5 57.5t26.5 58.5h-57q-16 -35 -37 -48t-37 -13t-30.5 5t-29.5 11 l-51 21q-10 4 -34.5 11t-57.5 7q-45 0 -84 -25.5t-67 -109.5q-6 -14 -11.5 -28.5t-9.5 -30.5zM252 442l61 498q4 59 6.5 116.5t4.5 117.5h16q2 -39 2 -78q0 -37 2 -78q2 -18 3 -36.5t5 -37.5l72 -502h-172z" />
<glyph unicode="&#xc4;" horiz-adv-x="681" d="M12 0h187l32 266h218l36 -266h187l-223 1446h-232zM131 1591h150v205h-150v-205zM252 442l61 498q4 59 6.5 116.5t4.5 117.5h16q2 -37 2 -74q0 -35 2 -72q2 -23 3 -42t5 -42l72 -502h-172zM395 1591h154v207h-154v-207z" />
<glyph unicode="&#xc5;" horiz-adv-x="681" d="M12 0h187l32 266h218l36 -266h187l-223 1446h-232zM188 1712q0 -63 45 -108q29 -31 61 -38t48 -7q61 0 107.5 44t46.5 109q0 61 -44 107.5t-110 46.5q-63 0 -108.5 -44t-45.5 -110zM242 1712q0 41 28.5 70.5t71.5 29.5q41 0 70.5 -28.5t29.5 -71.5q0 -41 -28.5 -70.5 t-71.5 -29.5q-18 0 -38 7t-34 21q-29 29 -28 72zM252 442l61 498q4 59 6.5 116.5t4.5 117.5h16q2 -37 2 -74q0 -35 2 -72q2 -23 3 -42t5 -42l72 -502h-172z" />
<glyph unicode="&#xc6;" horiz-adv-x="980" d="M-20 0h188l127 666h147v-666h504v180h-319v488h252v159h-252v441h291v178h-637zM326 825l92 502h31q-6 -78 -7 -149v-353h-116z" />
<glyph unicode="&#xc7;" horiz-adv-x="768" d="M82 348q0 -63 6 -127.5t45 -120.5q12 -18 33.5 -39.5t52.5 -39t73 -28.5t97 -11q57 0 100 12t75 31.5t53.5 42t33.5 41.5q35 53 43 106t11 113v270h-193v-281q0 -41 -5 -81.5t-42 -67.5q-23 -16 -43.5 -18.5t-30.5 -2.5q-41 0 -63.5 12.5t-33.5 31t-14.5 39t-3.5 34.5 q-2 12 -2 25v24v799q0 41 4.5 84t38.5 74q12 10 30 17t48 7q47 0 72 -19.5t35 -44t10 -48.5v-37v-223h193v184q0 53 -4.5 102t-26.5 99q-10 27 -27.5 50t-40.5 40q-29 23 -75 43t-125 20q-35 0 -63 -4t-58 -14q-70 -23 -109 -64t-59.5 -86t-25.5 -86t-5 -61q-4 -25 -4 -49 v-49v-699zM215 -287v-63q12 0 25.5 -1t27.5 -1q78 0 126 10t83 27q59 27 78.5 60.5t19.5 64.5q0 25 -8 40t-12 23q-29 33 -66.5 41t-78.5 10l88 162h-97l-145 -246q55 -4 92 -8t53 -31q6 -10 7 -20q0 -8 -4.5 -19.5t-18.5 -21.5q-33 -23 -83 -26t-87 -1z" />
<glyph unicode="&#xc8;" horiz-adv-x="598" d="M12 1833l258 -248h101l-148 248h-211zM86 0h477v182h-282v480h251v180h-253v424h284v180h-477v-1446z" />
<glyph unicode="&#xc9;" horiz-adv-x="598" d="M86 0h477v182h-282v480h251v180h-253v424h284v180h-477v-1446zM242 1587h96l258 250h-209z" />
<glyph unicode="&#xca;" horiz-adv-x="598" d="M78 1585h110l131 148l125 -146h117l-184 246h-117zM86 0h477v182h-282v480h251v180h-253v424h284v180h-477v-1446z" />
<glyph unicode="&#xcb;" horiz-adv-x="598" d="M86 0h477v182h-282v480h251v180h-253v424h284v180h-477v-1446zM100 1591h148v205h-148v-205zM365 1591h153v207h-153v-207z" />
<glyph unicode="&#xcc;" horiz-adv-x="342" d="M-115 1833l258 -248h101l-150 248h-209zM76 0h188v1446h-188v-1446z" />
<glyph unicode="&#xcd;" horiz-adv-x="342" d="M76 0h188v1446h-188v-1446zM92 1587h96l258 250h-208z" />
<glyph unicode="&#xce;" horiz-adv-x="342" d="M-72 1585h111l131 148l125 -146h117l-185 246h-114zM76 0h188v1446h-188v-1446z" />
<glyph unicode="&#xcf;" horiz-adv-x="342" d="M-39 1591h148v205h-148v-205zM76 0h188v1446h-188v-1446zM225 1591h154v207h-154v-207z" />
<glyph unicode="&#xd1;" horiz-adv-x="768" d="M84 0h178l-16 834l-6 124l-11 127h11l237 -1085h211v1446h-180l10 -744l6 -120q4 -53 9.5 -103.5t11.5 -101.5h-13q-8 35 -15 71.5t-15 71.5l-213 926h-205v-1446zM141 1610h54q4 10 5 16t5 14q18 33 40.5 42.5t39.5 9.5q25 0 47 -9.5t28 -13.5l50 -22q4 -2 27.5 -11.5 t49.5 -9.5q37 0 59.5 19.5t43.5 48.5q16 27 30.5 57.5t26.5 58.5h-57q-16 -35 -37 -48t-37 -13t-30.5 5t-28.5 11l-51 21q-10 4 -35 11t-58 7q-45 0 -84 -25.5t-67 -109.5q-6 -14 -11.5 -28.5t-9.5 -30.5z" />
<glyph unicode="&#xd2;" horiz-adv-x="768" d="M80 332q0 -61 2 -90t12 -62q12 -43 31.5 -73.5t43.5 -51t45.5 -33t35.5 -18.5q37 -14 72.5 -16t48.5 -2q16 0 55 2t84 17t88 50t66 99q16 41 19 85t5 85v688q-2 121 -7 188.5t-36 120.5q-6 12 -21.5 33.5t-43.5 44.5q-27 20 -55.5 32.5t-54.5 17.5t-46.5 6t-32.5 1 q-78 0 -125 -21.5t-73 -41.5q-43 -33 -66 -72t-33 -82t-12 -90t-2 -96v-721zM98 1833l258 -248h101l-150 248h-209zM270 264v31v774q0 82 4.5 129t42.5 72q20 14 41 17t29 3q39 0 58.5 -14t29.5 -29q16 -27 19.5 -69.5t3.5 -108.5v-729q0 -33 -1 -67.5t-11.5 -63.5 t-35 -47.5t-69.5 -18.5q-94 0 -107 95q-4 14 -4 26z" />
<glyph unicode="&#xd3;" horiz-adv-x="768" d="M80 332q0 -61 2 -90t12 -62q12 -43 31.5 -73.5t43.5 -51t45.5 -33t35.5 -18.5q37 -14 72.5 -16t48.5 -2q16 0 55 2t84 17t88 50t66 99q16 41 19 85t5 85v688q-2 121 -7 188.5t-36 120.5q-6 12 -21.5 33.5t-43.5 44.5q-27 20 -55.5 32.5t-54.5 17.5t-46.5 6t-32.5 1 q-78 0 -125 -21.5t-73 -41.5q-43 -33 -66 -72t-33 -82t-12 -90t-2 -96v-721zM270 264v31v774q0 82 4.5 129t42.5 72q20 14 41 17t29 3q39 0 58.5 -14t29.5 -29q16 -27 19.5 -69.5t3.5 -108.5v-729q0 -33 -1 -67.5t-11.5 -63.5t-35 -47.5t-69.5 -18.5q-94 0 -107 95 q-4 14 -4 26zM305 1587h98l256 250h-208z" />
<glyph unicode="&#xd4;" horiz-adv-x="768" d="M80 332q0 -61 2 -90t12 -62q12 -43 31.5 -73.5t43.5 -51t45.5 -33t35.5 -18.5q37 -14 72.5 -16t48.5 -2q16 0 55 2t84 17t88 50t66 99q16 41 19 85t5 85v688q-2 121 -7 188.5t-36 120.5q-6 12 -21.5 33.5t-43.5 44.5q-27 20 -55.5 32.5t-54.5 17.5t-46.5 6t-32.5 1 q-78 0 -125 -21.5t-73 -41.5q-43 -33 -66 -72t-33 -82t-12 -90t-2 -96v-721zM141 1585h113l129 148l125 -146h117l-185 246h-114zM270 264v31v774q0 82 4.5 129t42.5 72q20 14 41 17t29 3q39 0 58.5 -14t29.5 -29q16 -27 19.5 -69.5t3.5 -108.5v-729q0 -33 -1 -67.5 t-11.5 -63.5t-35 -47.5t-69.5 -18.5q-94 0 -107 95q-4 14 -4 26z" />
<glyph unicode="&#xd5;" horiz-adv-x="768" d="M80 332q0 -61 2 -90t12 -62q12 -43 31.5 -73.5t43.5 -51t45.5 -33t35.5 -18.5q37 -14 72.5 -16t48.5 -2q16 0 55 2t84 17t88 50t66 99q16 41 19 85t5 85v688q-2 121 -7 188.5t-36 120.5q-6 12 -21.5 33.5t-43.5 44.5q-27 20 -55.5 32.5t-54.5 17.5t-46.5 6t-32.5 1 q-78 0 -125 -21.5t-73 -41.5q-43 -33 -66 -72t-33 -82t-12 -90t-2 -96v-721zM141 1610h54q4 10 5 16t5 14q18 33 40.5 42.5t39.5 9.5q25 0 47 -9.5t28 -13.5l50 -22q4 -2 27.5 -11.5t49.5 -9.5q37 0 59.5 19.5t43.5 48.5q16 27 30.5 57.5t26.5 58.5h-57q-16 -35 -37 -48 t-37 -13t-30.5 5t-28.5 11l-51 21q-10 4 -35 11t-58 7q-45 0 -84 -25.5t-67 -109.5q-6 -14 -11.5 -28.5t-9.5 -30.5zM270 264v31v774q0 82 4.5 129t42.5 72q20 14 41 17t29 3q39 0 58.5 -14t29.5 -29q16 -27 19.5 -69.5t3.5 -108.5v-729q0 -33 -1 -67.5t-11.5 -63.5 t-35 -47.5t-69.5 -18.5q-94 0 -107 95q-4 14 -4 26z" />
<glyph unicode="&#xd6;" horiz-adv-x="768" d="M80 332q0 -63 3 -96t13 -66q14 -45 37 -76t48.5 -51t50 -30.5t40.5 -14.5q33 -10 59.5 -11t39.5 -1q49 0 96 9t87 30.5t69.5 57.5t46.5 89q14 47 15 93t3 59v688q0 61 -1 108t-6 85t-14.5 68t-25.5 58q-29 45 -64.5 70.5t-71.5 38t-66.5 14.5t-47.5 2q-78 0 -125 -21.5 t-73 -41.5q-66 -51 -86.5 -118t-24.5 -145q-2 -20 -2 -38v-39v-721zM174 1591h148v205h-148v-205zM270 264v31v774v76t5.5 58.5t17.5 43t35 29.5q6 4 21.5 9t37.5 5q10 0 42 -7t50 -44q14 -27 16.5 -66.5t2.5 -103.5v-729q0 -33 -1 -67.5t-11.5 -63.5t-35 -47.5t-69.5 -18.5 q-35 0 -54.5 10.5t-30.5 25t-15.5 30.5t-6.5 29q-4 14 -4 26zM438 1591h154v207h-154v-207z" />
<glyph unicode="&#xd7;" horiz-adv-x="1024" d="M88 289l115 -117l311 309l307 -309l115 117l-307 311l307 307l-115 113l-307 -307l-311 307l-115 -113l311 -307z" />
<glyph unicode="&#xd8;" horiz-adv-x="768" d="M14 6l72 -35l57 115q18 -18 27.5 -26.5t19.5 -16.5q31 -23 63 -35t59.5 -17t50 -6t32.5 -1q78 0 121 17t72 40q41 31 62.5 68.5t31.5 74.5t12 67t2 46q0 23 1 43t1 43v741l-2 58q-2 20 -3 38.5t-5 36.5l82 175l-76 34l-51 -106q-16 18 -36.5 35.5t-50.5 32t-70 23.5 t-93 9t-99 -10t-89 -39q-43 -31 -67.5 -65.5t-37 -69.5t-16.5 -63.5t-4 -47.5q-2 -16 -2 -30t-2 -31v-789q0 -57 4 -83.5t14 -55.5zM260 338l250 536v-542q-2 -70 -10 -106t-37 -60q-12 -10 -28.5 -16.5t-49.5 -6.5q-31 0 -51.5 9.5t-32.5 23.5t-19.5 28.5t-9.5 26.5 q-4 23 -6 44.5t-6 62.5zM262 535v581q2 68 11.5 102.5t37.5 57.5q31 23 78 22q49 0 71.5 -21.5t33.5 -39.5q10 -23 12 -51.5t2 -50.5v-68z" />
<glyph unicode="&#xd9;" horiz-adv-x="768" d="M82 317q2 -66 7 -102.5t17 -67.5q23 -59 61 -94t78 -51t76.5 -20.5t55.5 -4.5q20 0 61 4.5t86 25t85 60t61 111.5q6 25 10 53.5t6 53t2 43.5v22v1096h-188v-1106q-2 -72 -7.5 -114t-35.5 -68q-20 -16 -42 -19.5t-32 -3.5q-45 0 -67.5 19.5t-33 44t-11.5 48t-1 34.5 q-2 12 -2 22v25v1118h-186v-1129zM98 1833l258 -248h101l-150 248h-209z" />
<glyph unicode="&#xda;" horiz-adv-x="768" d="M82 317q2 -66 7 -102.5t17 -67.5q23 -59 61 -94t78 -51t76.5 -20.5t55.5 -4.5q20 0 61 4.5t86 25t85 60t61 111.5q6 25 10 53.5t6 53t2 43.5v22v1096h-188v-1106q-2 -72 -7.5 -114t-35.5 -68q-20 -16 -42 -19.5t-32 -3.5q-45 0 -67.5 19.5t-33 44t-11.5 48t-1 34.5 q-2 12 -2 22v25v1118h-186v-1129zM305 1587h98l256 250h-208z" />
<glyph unicode="&#xdb;" horiz-adv-x="768" d="M82 317q2 -66 7 -102.5t17 -67.5q23 -59 61 -94t78 -51t76.5 -20.5t55.5 -4.5q20 0 61 4.5t86 25t85 60t61 111.5q6 25 10 53.5t6 53t2 43.5v22v1096h-188v-1106q-2 -72 -7.5 -114t-35.5 -68q-20 -16 -42 -19.5t-32 -3.5q-45 0 -67.5 19.5t-33 44t-11.5 48t-1 34.5 q-2 12 -2 22v25v1118h-186v-1129zM141 1585h113l129 148l125 -146h117l-185 246h-114z" />
<glyph unicode="&#xdc;" horiz-adv-x="768" d="M82 317q2 -41 4 -78.5t14 -76.5q8 -27 26.5 -58.5t51.5 -59.5t81 -47.5t118 -19.5q74 0 126 19.5t86 48.5t52 63.5t27 63.5q10 37 14 72t6 106v1096h-188v-1106q-2 -72 -6.5 -115t-38.5 -69q-27 -20 -72 -21q-45 0 -67.5 19.5t-33 44t-11.5 48t-1 34.5q-2 12 -2 22v25 v1118h-186v-1129zM174 1591h148v205h-148v-205zM438 1591h154v207h-154v-207z" />
<glyph unicode="&#xdf;" d="M82 0h162v1221v22t6 32.5t21.5 30t45.5 13.5q45 0 60.5 -21.5t19.5 -62.5v-43q0 -29 -2 -54.5t-11 -43t-29.5 -26.5t-57.5 -5v-125h20q16 0 34 -4t34 -18.5t23 -41.5q4 -16 4 -30v-31v-543q0 -18 -1 -44.5t-12 -43.5q-12 -18 -29.5 -26.5t-35 -10.5t-30.5 -1t-17 1v-145 q31 -6 46 -7t32 -1q94 0 137 37t59 77q10 35 12 71t2 44v604q0 39 -5 82t-40 72q-8 6 -17 11t-28 11q4 2 20.5 14.5t29.5 28.5q16 25 20 53.5t4 57.5v82q-2 6 -3 42t-17 67q-10 25 -26.5 41t-25.5 22q-37 29 -76.5 39t-86.5 10q-61 0 -103.5 -15.5t-70 -38t-42 -51 t-20.5 -55.5q-4 -16 -5 -34.5t-1 -53.5v-1210z" />
<glyph unicode="&#xe0;" d="M41 1430l258 -248h100l-149 248h-209zM70 172q0 -16 1 -47t15 -61.5t46 -53t91 -22.5t93 26.5t67 73.5q8 -39 13 -52t16 -36h174q-12 27 -18.5 56.5t-8.5 55t-2 44.5v28v697q0 29 -2 56.5t-12 55.5q-10 31 -27.5 48.5t-28.5 25.5q-47 37 -99 43t-69 6q-55 0 -94 -12 t-65.5 -31.5t-42 -43t-23.5 -46.5q-8 -25 -10 -50.5t-2 -51.5v-136h168v154q0 8 1 21.5t7 27t20.5 23.5t43.5 10q27 0 41 -9t20 -23.5t8 -29t2 -22.5v-164q-10 -16 -22.5 -28.5t-42.5 -34.5l-158 -99q-35 -25 -54.5 -44t-29.5 -40.5t-13 -49t-3 -68.5v-197zM233 248v112 q0 27 5.5 46.5t23.5 39.5q8 10 13.5 14.5t15.5 10.5l63 43q16 12 21.5 15t15.5 14v-256q-2 -37 -8 -82t-39 -72q-4 -4 -16.5 -9t-28.5 -5q-41 0 -57 39q-6 16 -7.5 35.5t-1.5 54.5z" />
<glyph unicode="&#xe1;" d="M70 172q0 -16 1 -47t15 -61.5t46 -53t91 -22.5t93 26.5t67 73.5q8 -39 13 -52t16 -36h174q-12 27 -18.5 56.5t-8.5 55t-2 44.5v28v697q0 29 -2 56.5t-12 55.5q-10 31 -27.5 48.5t-28.5 25.5q-47 37 -99 43t-69 6q-55 0 -94 -12t-65.5 -31.5t-42 -43t-23.5 -46.5 q-8 -25 -10 -50.5t-2 -51.5v-136h168v154q0 8 1 21.5t7 27t20.5 23.5t43.5 10q27 0 41 -9t20 -23.5t8 -29t2 -22.5v-164q-10 -16 -22.5 -28.5t-42.5 -34.5l-158 -99q-35 -25 -54.5 -44t-29.5 -40.5t-13 -49t-3 -68.5v-197zM233 248v112q0 27 5.5 46.5t23.5 39.5 q8 10 13.5 14.5t15.5 10.5l63 43q16 12 21.5 15t15.5 14v-256q-2 -37 -8 -82t-39 -72q-4 -4 -16.5 -9t-28.5 -5q-41 0 -57 39q-6 16 -7.5 35.5t-1.5 54.5zM248 1182h94l256 248h-203z" />
<glyph unicode="&#xe2;" d="M70 172q0 -16 1 -47t15 -61.5t46 -53t91 -22.5t93 26.5t67 73.5q8 -39 13 -52t16 -36h174q-12 27 -18.5 56.5t-8.5 55t-2 44.5v28v697q0 29 -2 56.5t-12 55.5q-10 31 -27.5 48.5t-28.5 25.5q-47 37 -99 43t-69 6q-55 0 -94 -12t-65.5 -31.5t-42 -43t-23.5 -46.5 q-8 -25 -10 -50.5t-2 -51.5v-136h168v154q0 8 1 21.5t7 27t20.5 23.5t43.5 10q27 0 41 -9t20 -23.5t8 -29t2 -22.5v-164q-10 -16 -22.5 -28.5t-42.5 -34.5l-158 -99q-35 -25 -54.5 -44t-29.5 -40.5t-13 -49t-3 -68.5v-197zM90 1182h113l131 149l123 -149h116l-184 248h-113z M233 248v112q0 27 5.5 46.5t23.5 39.5q8 10 13.5 14.5t15.5 10.5l63 43q16 12 21.5 15t15.5 14v-256q-2 -37 -8 -82t-39 -72q-4 -4 -16.5 -9t-28.5 -5q-41 0 -57 39q-6 16 -7.5 35.5t-1.5 54.5z" />
<glyph unicode="&#xe3;" d="M70 172q0 -16 1 -47t15 -61.5t46 -53t91 -22.5t93 26.5t67 73.5q8 -39 13 -52t16 -36h174q-12 27 -18.5 56.5t-8.5 55t-2 44.5v28v697q0 29 -2 56.5t-12 55.5q-10 31 -27.5 48.5t-28.5 25.5q-47 37 -99 43t-69 6q-55 0 -94 -12t-65.5 -31.5t-42 -43t-23.5 -46.5 q-8 -25 -10 -50.5t-2 -51.5v-136h168v154q0 8 1 21.5t7 27t20.5 23.5t43.5 10q27 0 41 -9t20 -23.5t8 -29t2 -22.5v-164q-10 -16 -22.5 -28.5t-42.5 -34.5l-158 -99q-35 -25 -54.5 -44t-29.5 -40.5t-13 -49t-3 -68.5v-197zM80 1202h53q4 10 5 16.5t5 14.5q18 33 41 42t39 9 q25 0 47.5 -9t28.5 -13l49 -23q4 -2 27.5 -11t50.5 -9q37 0 59.5 19t40.5 48q18 25 32.5 55.5t27.5 59.5l-58 2q-16 -35 -36.5 -48.5t-36.5 -13.5t-30.5 5.5t-29.5 11.5l-51 18q-10 4 -34.5 11.5t-57.5 7.5q-45 0 -84 -26t-68 -107q-6 -14 -11 -28.5t-9 -31.5zM233 248v112 q0 27 5.5 46.5t23.5 39.5q8 10 13.5 14.5t15.5 10.5l63 43q16 12 21.5 15t15.5 14v-256q-2 -37 -8 -82t-39 -72q-4 -4 -16.5 -9t-28.5 -5q-41 0 -57 39q-6 16 -7.5 35.5t-1.5 54.5z" />
<glyph unicode="&#xe4;" d="M70 172q0 -16 1 -47t15 -61.5t46 -53t91 -22.5q37 0 63.5 11t45 27.5t31 34t18.5 27.5q4 -16 7 -26.5t6 -18.5t7.5 -17.5t10.5 -25.5h174q-23 45 -26 90t-3 94v697q0 47 -3 69.5t-11 44.5q-16 45 -68.5 83t-155.5 38q-74 0 -137 -29.5t-88 -105.5q-6 -18 -9 -39.5 t-3 -60.5v-136h168v154q0 8 1 22.5t7 28t20.5 22.5t43.5 9q27 0 42 -10t21 -24.5t7 -28t1 -21.5v-164q-12 -18 -22.5 -29.5t-42.5 -33.5l-158 -99q-35 -25 -54.5 -44t-29.5 -40.5t-13 -49t-3 -68.5v-197zM119 1206h147v205h-147v-205zM233 248v112q0 27 5.5 46.5t23.5 39.5 q8 10 13.5 14.5t15.5 10.5l63 43q14 10 19.5 14t17.5 15v-256q-2 -31 -4 -64t-18 -61q-4 -8 -20.5 -25.5t-49.5 -17.5q-25 0 -37 12t-16 19q-10 18 -11.5 38.5t-1.5 59.5zM383 1206h154v205h-154v-205z" />
<glyph unicode="&#xe5;" d="M70 172q0 -16 1 -47t15 -61.5t46 -53t91 -22.5q37 0 63.5 11t45 27.5t31 34t18.5 27.5q4 -16 7 -26.5t6 -18.5t7.5 -17.5t10.5 -25.5h174q-23 45 -26 90t-3 94v697q0 47 -3 69.5t-11 44.5q-16 45 -68.5 83t-155.5 38q-74 0 -137 -29.5t-88 -105.5q-6 -18 -9 -39.5 t-3 -60.5v-136h168v154q0 8 1 22.5t7 28t20.5 22.5t43.5 9q27 0 42 -10t21 -24.5t7 -28t1 -21.5v-164q-12 -18 -22.5 -29.5t-42.5 -33.5l-158 -99q-35 -25 -54.5 -44t-29.5 -40.5t-13 -49t-3 -68.5v-197zM168 1333q0 -29 11.5 -58.5t31.5 -49.5q12 -12 40 -29.5t71 -17.5 q66 0 110.5 45t44.5 110q0 66 -44 111t-109 45q-66 0 -111 -45t-45 -111zM221 1333q0 41 30 71t71 32q41 0 70.5 -30t31.5 -71q0 -41 -29.5 -71.5t-70.5 -30.5q-20 0 -39 8.5t-33 20.5q-31 35 -31 71zM233 248v112q0 27 5.5 46.5t23.5 39.5q8 10 13.5 14.5t15.5 10.5l63 43 q14 10 19.5 14t17.5 15v-256q-2 -31 -4 -64t-18 -61q-4 -8 -20.5 -25.5t-49.5 -17.5q-25 0 -37 12t-16 19q-10 18 -11.5 38.5t-1.5 59.5z" />
<glyph unicode="&#xe6;" horiz-adv-x="937" d="M59 172q0 -35 2 -69.5t25 -65.5q14 -20 32.5 -31.5t37 -16.5t34 -6t21.5 -1q70 0 110.5 30.5t57.5 48.5q6 8 12 18.5t10 20.5q10 -16 15.5 -26.5t11.5 -16.5q10 -14 21.5 -22t15.5 -12q23 -16 61.5 -28.5t102.5 -12.5q55 0 94 13t64.5 34.5t41 45t23.5 46.5 q10 29 12 59.5t2 61.5v164h-166v-193q0 -8 -1 -23.5t-8 -32t-22.5 -28.5t-45.5 -12q-33 0 -49.5 12t-22.5 27.5t-6 31.5v27v295h321v358q0 33 -2 63t-16 62q-12 33 -31.5 51.5t-30.5 26.5q-37 25 -75.5 35t-81.5 10q-66 0 -101.5 -15.5t-60.5 -31.5q-25 18 -58.5 33.5 t-99.5 15.5q-76 0 -140.5 -33.5t-86.5 -111.5q-8 -25 -10 -51.5t-2 -55.5v-121h163v144q0 8 1.5 22.5t7.5 29.5t21.5 26.5t45.5 11.5q41 0 54.5 -20.5t15.5 -36.5v-160q2 -27 -1 -36t-26 -26l-172 -114q-35 -23 -67.5 -50.5t-44.5 -72.5q-6 -20 -7.5 -45t-1.5 -29v-217z M221 193v18v131q2 45 6 66.5t23 40.5q4 4 12 10t14 10l52 33q23 16 32 23t19 18v-283q0 -33 -6 -67.5t-37 -57.5q-14 -10 -28.5 -13t-20.5 -3q-29 0 -42.5 13t-18.5 29.5t-5 31.5zM545 647v236q0 8 1 24.5t8 32.5t24.5 27.5t48.5 11.5q49 0 61 -25.5t12 -66.5v-240h-155z " />
<glyph unicode="&#xe7;" horiz-adv-x="598" d="M74 217q2 -49 5 -72.5t13 -48.5q18 -45 52 -68.5t69 -33.5t63.5 -11t38.5 -1q35 0 60.5 4t40.5 8q37 12 62.5 30.5t42 40t24.5 41t12 33.5q8 31 8 58v39v200h-164v-205q0 -29 -5 -60.5t-38 -45.5q-14 -4 -25 -6t-18 -2q-4 0 -15 2t-24 6q-27 12 -32.5 32.5t-7.5 45.5v665 q2 27 5 53.5t27 43.5q20 12 51 12h17q10 0 21.5 -4t22.5 -13.5t17 -27.5q4 -10 4 -27v-16v-187h166v152q0 35 -2 64.5t-14 62.5q-10 25 -34.5 59.5t-84.5 57.5q-35 14 -67.5 16t-42.5 2q-14 0 -47 -3t-69 -17.5t-70 -44t-50 -82.5q-8 -23 -10 -42.5t-2 -60.5v-649zM129 -287 v-63q14 0 26.5 -1t26.5 -1q80 0 128 10t83 27q59 27 79 60.5t20 64.5q0 25 -8.5 40t-14.5 23q-27 33 -65.5 41t-77.5 10l88 162h-99l-145 -246q55 -4 92 -8t53 -31q8 -8 9 -20q0 -8 -4.5 -19.5t-18.5 -21.5q-33 -23 -84 -26t-88 -1z" />
<glyph unicode="&#xe8;" d="M41 1430l258 -248h100l-149 248h-209zM80 209q2 -25 3 -46.5t9 -45.5q16 -49 49 -77t68 -41t65.5 -15t42.5 -2t44 3t68 16t68.5 42t51.5 80q14 41 15 78t3 49v158h-168v-193v-27q0 -16 -7 -32.5t-24.5 -28.5t-50.5 -12q-29 0 -44 10t-22 24.5t-8 30t-1 23.5v309h325v354 q-2 33 -4 58.5t-12 56.5q-18 47 -51 73.5t-68 40t-64.5 16.5t-41.5 3q-59 0 -98.5 -15.5t-59.5 -31.5q-53 -37 -66.5 -82t-15.5 -67q-4 -31 -5 -61t-1 -60v-588zM242 647v213q0 29 3 58.5t31 48.5q14 8 30 10t20 2q25 0 40 -8t22 -19.5t9 -24t2 -20.5q2 -8 2 -16v-12v-232 h-159z" />
<glyph unicode="&#xe9;" d="M80 209q2 -25 3 -46.5t9 -45.5q16 -49 49 -77t68 -41t65.5 -15t42.5 -2t44 3t68 16t68.5 42t51.5 80q14 41 15 78t3 49v158h-168v-193v-27q0 -16 -7 -32.5t-24.5 -28.5t-50.5 -12q-29 0 -44 10t-22 24.5t-8 30t-1 23.5v309h325v354q-2 33 -4 58.5t-12 56.5 q-18 47 -51 73.5t-68 40t-64.5 16.5t-41.5 3q-59 0 -98.5 -15.5t-59.5 -31.5q-53 -37 -66.5 -82t-15.5 -67q-4 -31 -5 -61t-1 -60v-588zM242 647v213q0 29 3 58.5t31 48.5q14 8 30 10t20 2q25 0 40 -8t22 -19.5t9 -24t2 -20.5q2 -8 2 -16v-12v-232h-159zM248 1182h94 l256 248h-203z" />
<glyph unicode="&#xea;" d="M80 209q2 -25 3 -46.5t9 -45.5q16 -49 49 -77t68 -41t65.5 -15t42.5 -2t44 3t68 16t68.5 42t51.5 80q14 41 15 78t3 49v158h-168v-193v-27q0 -16 -7 -32.5t-24.5 -28.5t-50.5 -12q-29 0 -44 10t-22 24.5t-8 30t-1 23.5v309h325v354q-2 33 -4 58.5t-12 56.5 q-18 47 -51 73.5t-68 40t-64.5 16.5t-41.5 3q-59 0 -98.5 -15.5t-59.5 -31.5q-53 -37 -66.5 -82t-15.5 -67q-4 -31 -5 -61t-1 -60v-588zM90 1182h113l131 149l123 -149h116l-184 248h-113zM242 647v213q0 29 3 58.5t31 48.5q14 8 30 10t20 2q25 0 40 -8t22 -19.5t9 -24 t2 -20.5q2 -8 2 -16v-12v-232h-159z" />
<glyph unicode="&#xeb;" d="M80 209q2 -25 3 -46.5t9 -45.5q16 -49 49 -77t68 -41t65.5 -15t42.5 -2t44 3t68 16t68.5 42t51.5 80q14 41 15 78t3 49v158h-168v-193v-27q0 -16 -7 -32.5t-24.5 -28.5t-50.5 -12q-29 0 -44 10t-22 24.5t-8 30t-1 23.5v309h325v354q-2 33 -4 58.5t-12 56.5 q-18 47 -51 73.5t-68 40t-64.5 16.5t-41.5 3q-59 0 -98.5 -15.5t-59.5 -31.5q-53 -37 -66.5 -82t-15.5 -67q-4 -31 -5 -61t-1 -60v-588zM129 1206h147v205h-147v-205zM242 647v213q0 29 3 58.5t31 48.5q14 8 30 10t20 2q25 0 40 -8t22 -19.5t9 -24t2 -20.5q2 -8 2 -16v-12 v-232h-159zM393 1206h154v205h-154v-205z" />
<glyph unicode="&#xec;" horiz-adv-x="342" d="M-109 1430l259 -248h100l-150 248h-209zM88 0h164v1096h-164v-1096z" />
<glyph unicode="&#xed;" horiz-adv-x="342" d="M88 0h164v1096h-164v-1096zM98 1182h97l254 248h-203z" />
<glyph unicode="&#xee;" horiz-adv-x="342" d="M-70 1182h111l133 149l123 -149h115l-183 248h-112zM88 0h164v1096h-164v-1096z" />
<glyph unicode="&#xef;" horiz-adv-x="342" d="M-31 1206h148v205h-148v-205zM88 0h164v1096h-164v-1096zM233 1206h154v205h-154v-205z" />
<glyph unicode="&#xf1;" d="M70 1202h51q4 10 6 16.5t6 14.5q16 33 40 42t40 9q25 0 47.5 -9t26.5 -13l51 -23q4 -2 27.5 -11t50.5 -9q37 0 59.5 19t40.5 48q16 25 31.5 55.5t27.5 59.5l-57 2q-16 -35 -36.5 -48.5t-37.5 -13.5q-16 0 -30.5 5.5t-30.5 11.5l-49 18q-10 4 -35 11.5t-57 7.5 q-45 0 -84 -24.5t-70 -108.5q-4 -14 -9 -28.5t-9 -31.5zM80 0h164v829q0 31 3 64t29 55q16 12 31 15.5t23 3.5q20 0 37.5 -9.5t25.5 -29.5q8 -18 8 -68v-860h168v889q0 51 -8 104.5t-53 89.5q-31 23 -60.5 28t-44.5 5q-35 0 -61.5 -10t-46 -25.5t-32.5 -31t-19 -23.5l-2 70 h-162v-1096z" />
<glyph unicode="&#xf2;" d="M41 1430l258 -248h100l-149 248h-209zM78 295q0 -37 1 -76t9 -76t27.5 -68.5t56.5 -56.5q45 -29 89 -32.5t61 -3.5q57 0 97 13t66.5 32.5t43 44t24.5 49.5q10 33 12 59.5t4 61.5v616q0 35 -2 65.5t-14 63.5q-18 49 -51 74.5t-68 37t-64.5 13.5t-41.5 2q-39 0 -61.5 -4 t-39.5 -10q-10 -4 -30.5 -12.5t-42.5 -30.5q-29 -25 -44.5 -55.5t-22.5 -63.5t-8 -67.5t-1 -69.5v-506zM242 190v25v645q0 45 6 67.5t28 39.5q14 10 31 11t21 1q47 0 60 -22.5t18 -43.5q0 -10 1 -19t1 -20v-647q-2 -47 -16.5 -78.5t-72.5 -31.5q-33 0 -49 12t-22 28.5 t-6 32.5z" />
<glyph unicode="&#xf3;" d="M78 295q0 -37 1 -76t9 -76t27.5 -68.5t56.5 -56.5q45 -29 89 -32.5t61 -3.5q57 0 97 13t66.5 32.5t43 44t24.5 49.5q10 33 12 59.5t4 61.5v616q0 35 -2 65.5t-14 63.5q-18 49 -51 74.5t-68 37t-64.5 13.5t-41.5 2q-39 0 -61.5 -4t-39.5 -10q-10 -4 -30.5 -12.5 t-42.5 -30.5q-29 -25 -44.5 -55.5t-22.5 -63.5t-8 -67.5t-1 -69.5v-506zM242 190v25v645q0 45 6 67.5t28 39.5q14 10 31 11t21 1q47 0 60 -22.5t18 -43.5q0 -10 1 -19t1 -20v-647q-2 -47 -16.5 -78.5t-72.5 -31.5q-33 0 -49 12t-22 28.5t-6 32.5zM248 1182h94l256 248h-203z " />
<glyph unicode="&#xf4;" d="M78 295q0 -37 1 -76t9 -76t27.5 -68.5t56.5 -56.5q45 -29 89 -32.5t61 -3.5q57 0 97 13t66.5 32.5t43 44t24.5 49.5q10 33 12 59.5t4 61.5v616q0 35 -2 65.5t-14 63.5q-18 49 -51 74.5t-68 37t-64.5 13.5t-41.5 2q-39 0 -61.5 -4t-39.5 -10q-10 -4 -30.5 -12.5 t-42.5 -30.5q-29 -25 -44.5 -55.5t-22.5 -63.5t-8 -67.5t-1 -69.5v-506zM90 1182h113l131 149l123 -149h116l-184 248h-113zM242 190v25v645q0 45 6 67.5t28 39.5q14 10 31 11t21 1q47 0 60 -22.5t18 -43.5q0 -10 1 -19t1 -20v-647q-2 -47 -16.5 -78.5t-72.5 -31.5 q-33 0 -49 12t-22 28.5t-6 32.5z" />
<glyph unicode="&#xf5;" d="M78 295q0 -37 1 -76t9 -76t27.5 -68.5t56.5 -56.5q45 -29 89 -32.5t61 -3.5q57 0 97 13t66.5 32.5t43 44t24.5 49.5q10 33 12 59.5t4 61.5v616q0 35 -2 65.5t-14 63.5q-18 49 -51 74.5t-68 37t-64.5 13.5t-41.5 2q-39 0 -61.5 -4t-39.5 -10q-10 -4 -30.5 -12.5 t-42.5 -30.5q-29 -25 -44.5 -55.5t-22.5 -63.5t-8 -67.5t-1 -69.5v-506zM80 1202h53q4 10 5 16.5t5 14.5q18 33 41 42t39 9q25 0 47.5 -9t28.5 -13l49 -23q4 -2 27.5 -11t50.5 -9q37 0 59.5 19t40.5 48q18 25 32.5 55.5t27.5 59.5l-58 2q-16 -35 -36.5 -48.5t-36.5 -13.5 t-30.5 5.5t-29.5 11.5l-51 18q-10 4 -34.5 11.5t-57.5 7.5q-45 0 -84 -26t-68 -107q-6 -14 -11 -28.5t-9 -31.5zM242 190v25v645q0 45 6 67.5t28 39.5q14 10 31 11t21 1q47 0 60 -22.5t18 -43.5q0 -10 1 -19t1 -20v-647q-2 -47 -16.5 -78.5t-72.5 -31.5q-33 0 -49 12 t-22 28.5t-6 32.5z" />
<glyph unicode="&#xf6;" d="M78 295q2 -80 7 -127t26 -82q35 -61 90 -82.5t121 -21.5q84 0 128 23.5t68 51.5q35 41 42 87t9 98v616q0 33 -3 64.5t-13 62.5q-8 23 -23.5 46.5t-42 42t-65.5 29.5t-94 11q-12 0 -34 -1t-47.5 -7t-54 -21.5t-53.5 -42.5q-47 -51 -53 -114.5t-8 -126.5v-506zM119 1206 h147v205h-147v-205zM242 188v27v645q0 29 3 58.5t31 48.5q20 12 52 12q35 0 54 -15.5t24 -52.5q0 -10 1 -18t1 -19v-647q-2 -47 -16.5 -78.5t-69.5 -31.5q-33 0 -49.5 12t-23.5 27.5t-7 31.5zM383 1206h154v205h-154v-205z" />
<glyph unicode="&#xf7;" horiz-adv-x="1024" d="M0 514h1024v162h-1024v-162zM399 297q-2 -43 31 -78t82 -35t83 31t36 82q0 49 -33 82t-84 35q-47 0 -81 -34t-34 -83zM399 889q0 -47 34 -79t81 -34q33 0 55.5 12.5t37 31t19.5 38t5 31.5q0 51 -33 84t-82 35q-70 0 -102 -60q-10 -20 -12.5 -34.5t-2.5 -24.5z" />
<glyph unicode="&#xf8;" d="M39 6l57 -29l37 76q27 -25 68 -49t121 -24q14 0 45.5 2t66.5 16t68 42t51 81q10 33 12 63.5t2 40.5v654q0 18 -1 34.5t-7 51.5l57 127l-59 28l-39 -76q-10 10 -17 16.5t-22 16.5q-45 29 -89 33t-60 4q-78 0 -141.5 -32.5t-92.5 -110.5q-12 -31 -14 -59.5t-4 -63.5v-619 q2 -43 5 -60t11 -42zM240 199v88l166 352v-401q0 -27 -5.5 -59t-31.5 -48q-16 -12 -50 -12q-25 0 -45 10t-30 37q-4 10 -4 33zM240 442v414q0 29 4 58.5t30 48.5q14 10 31 12t23 2q31 0 46 -11.5t22 -26.5t8.5 -30.5t1.5 -25.5v-90z" />
<glyph unicode="&#xf9;" d="M41 1430l258 -248h100l-149 248h-209zM74 207q0 -53 8 -105.5t55 -89.5q29 -23 59.5 -27.5t43.5 -4.5q37 0 63.5 10t46 25.5t32.5 29.5t19 25v-70h164v1096h-164v-830q0 -29 -3 -62.5t-29 -56.5q-16 -12 -30.5 -14t-23.5 -2q-20 0 -37.5 9.5t-27.5 27.5q-4 12 -5 27.5 t-1 42.5v858h-170v-889z" />
<glyph unicode="&#xfa;" d="M74 207q0 -53 8 -105.5t55 -89.5q29 -23 59.5 -27.5t43.5 -4.5q37 0 63.5 10t46 25.5t32.5 29.5t19 25v-70h164v1096h-164v-830q0 -29 -3 -62.5t-29 -56.5q-16 -12 -30.5 -14t-23.5 -2q-20 0 -37.5 9.5t-27.5 27.5q-4 12 -5 27.5t-1 42.5v858h-170v-889zM248 1182h94 l256 248h-203z" />
<glyph unicode="&#xfb;" d="M74 207q0 -53 8 -105.5t55 -89.5q29 -23 59.5 -27.5t43.5 -4.5q37 0 63.5 10t46 25.5t32.5 29.5t19 25v-70h164v1096h-164v-830q0 -29 -3 -62.5t-29 -56.5q-16 -12 -30.5 -14t-23.5 -2q-20 0 -37.5 9.5t-27.5 27.5q-4 12 -5 27.5t-1 42.5v858h-170v-889zM80 1182h110 l132 149l124 -149h115l-182 248h-113z" />
<glyph unicode="&#xfc;" d="M74 207q0 -27 1 -54.5t8 -53t21.5 -49t38.5 -42.5q29 -20 57.5 -24t41.5 -4q35 0 61.5 10t46 25.5t32.5 29.5t19 25v-70h164v1096h-164v-830q0 -29 -3 -62.5t-31 -56.5q-16 -12 -29.5 -14t-22.5 -2q-29 0 -44 12.5t-19 22.5q-6 14 -7 34.5t-1 37.5v858h-170v-889z M119 1206h147v205h-147v-205zM383 1206h154v205h-154v-205z" />
<glyph unicode="&#xff;" horiz-adv-x="555" d="M8 1096l164 -1076q6 -45 4 -69.5t-16 -44.5q-20 -29 -52 -33t-63 -4v-158q23 -2 43.5 -3t40.5 -1q41 0 68.5 6t42.5 13q29 12 47 34.5t27.5 45t13.5 41t6 26.5l209 1219h-170l-58 -459q-6 -47 -11 -93t-9 -94q-4 -55 -6 -110t-4 -113h-17q-4 55 -9 109.5t-11 109.5 l-72 654h-168zM76 1206h147v205h-147v-205zM340 1206h154v205h-154v-205z" />
<glyph unicode="&#x152;" horiz-adv-x="980" d="M80 373q0 -45 1 -89t10 -86t29.5 -80t59.5 -69q41 -33 86 -45t96 -12q29 0 54.5 2t52.5 6h485v174h-309v490h254v176h-252v428h293v178h-446q-59 6 -115 6q-41 0 -81 -5t-76 -19.5t-64.5 -40t-46.5 -66.5q-20 -49 -24.5 -113.5t-6.5 -173.5v-661zM258 358v785 q0 33 6 63.5t37 53.5q25 16 61 16q31 0 49.5 -10.5t28 -24.5t12.5 -29.5t3 -25.5v-862q0 -57 -5.5 -88t-31.5 -52q-10 -8 -22.5 -13t-37.5 -5q-43 0 -65.5 21.5t-30.5 62.5q-2 16 -3 42.5t-1 65.5z" />
<glyph unicode="&#x153;" horiz-adv-x="980" d="M76 215q2 -55 8 -76q12 -57 40 -86.5t48 -40.5q33 -18 72 -25t75 -7q68 0 109 20t61 37q2 -2 11.5 -10.5t19.5 -14.5q18 -10 54 -21t88 -11q78 0 140 33.5t89 111.5q10 35 12 69.5t2 45.5v166h-164v-175q0 -27 -3 -53t-29 -45q-25 -14 -52 -14q-4 0 -17 2t-28 8 q-27 14 -33 37.5t-6 50.5v295h334v362q0 29 -1 52.5t-11 50.5q-8 25 -24.5 49.5t-44 45t-68.5 34.5t-96 14q-29 0 -72 -7t-96 -44q-76 51 -172 51q-55 0 -96.5 -14t-69 -35.5t-43 -47.5t-23.5 -48.5t-11 -44t-3 -68.5v-647zM238 217v649q2 41 8 62.5t24 36.5q14 12 28.5 14 t23.5 2q49 0 64 -22.5t20 -43.5q2 -10 2 -22q0 -10 2 -21v-649q-2 -27 -6.5 -51.5t-30.5 -40.5q-20 -14 -51 -14q-33 0 -50.5 12t-24.5 28.5t-8 34t-1 25.5zM573 647v207q2 29 3.5 60.5t29.5 52.5q16 10 31.5 12t21.5 2q33 0 50.5 -12.5t24.5 -28.5t8 -33.5t1 -27.5v-232 h-170z" />
<glyph unicode="&#x178;" horiz-adv-x="681" d="M8 1446l219 -842v-604h207v606l240 840h-193l-90 -320q-14 -59 -23.5 -100t-13.5 -72.5t-7 -60.5t-5 -62h-14q-6 61 -9.5 98.5t-8.5 65t-10 53t-13 62.5l-84 336h-195zM133 1591h148v205h-148v-205zM395 1591h156v207h-156v-207z" />
<glyph unicode="&#x2c6;" horiz-adv-x="425" d="M-135 1182h112l132 149l122 -149h117l-182 248h-115z" />
<glyph unicode="&#x2dc;" horiz-adv-x="425" d="M-143 1202h51q4 10 6 16.5t6 14.5q16 33 39 42t39 9q25 0 48.5 -9t27.5 -13l51 -23q4 -2 27.5 -11t50.5 -9q37 0 59.5 19t40.5 48q16 25 31.5 55.5t27.5 59.5l-57 2q-16 -35 -36.5 -48.5t-37.5 -13.5q-16 0 -30.5 5.5t-30.5 11.5l-49 18q-10 4 -36 11.5t-56 7.5 q-45 0 -84 -24.5t-70 -108.5q-4 -14 -9 -28.5t-9 -31.5z" />
<glyph unicode="&#x2000;" horiz-adv-x="933" />
<glyph unicode="&#x2001;" horiz-adv-x="1866" />
<glyph unicode="&#x2002;" horiz-adv-x="933" />
<glyph unicode="&#x2003;" horiz-adv-x="1866" />
<glyph unicode="&#x2004;" horiz-adv-x="622" />
<glyph unicode="&#x2005;" horiz-adv-x="466" />
<glyph unicode="&#x2006;" horiz-adv-x="311" />
<glyph unicode="&#x2007;" horiz-adv-x="311" />
<glyph unicode="&#x2008;" horiz-adv-x="233" />
<glyph unicode="&#x2009;" horiz-adv-x="373" />
<glyph unicode="&#x200a;" horiz-adv-x="103" />
<glyph unicode="&#x2010;" horiz-adv-x="468" d="M59 582h363v172h-363v-172z" />
<glyph unicode="&#x2011;" horiz-adv-x="468" d="M59 582h363v172h-363v-172z" />
<glyph unicode="&#x2012;" horiz-adv-x="468" d="M59 582h363v172h-363v-172z" />
<glyph unicode="&#x2013;" horiz-adv-x="724" d="M61 582h607v172h-607v-172z" />
<glyph unicode="&#x2014;" horiz-adv-x="1024" d="M0 516h1024v166h-1024v-166z" />
<glyph unicode="&#x2018;" horiz-adv-x="299" d="M68 901h165v264h-81v43q2 41 8 88t39 80q6 6 12 11.5t12 9.5l2 45q-29 -16 -52 -32.5t-44 -41.5q-35 -41 -47 -93t-14 -155v-219z" />
<glyph unicode="&#x2019;" horiz-adv-x="299" d="M66 1182h81v-41q-2 -43 -8 -90t-41 -80q-4 -4 -11 -9.5t-13 -11.5v-45q29 16 51 32.5t45 41.5q35 41 47 93t12 155v219h-163v-264z" />
<glyph unicode="&#x201a;" horiz-adv-x="299" d="M63 0h82v-43q-2 -41 -8 -88t-41 -80q-8 -8 -14 -12t-10 -8v-45q31 18 54.5 35.5t45.5 45.5q41 53 48 115t7 125v219h-164v-264z" />
<glyph unicode="&#x201c;" horiz-adv-x="598" d="M96 905h164v264h-82v43q2 41 8.5 88.5t40.5 79.5q8 10 25 21v45q-29 -16 -51.5 -32.5t-44.5 -41.5q-35 -41 -47.5 -93t-12.5 -155v-219zM362 905h166v264h-82v43q2 41 8.5 88.5t41.5 79.5q8 10 24 21v45q-29 -16 -51.5 -32.5t-44.5 -41.5q-35 -41 -47 -93t-15 -155v-219z " />
<glyph unicode="&#x201d;" horiz-adv-x="598" d="M84 1180h82v-43q-4 -41 -9 -88.5t-40 -79.5q-8 -8 -25 -21v-45q27 16 50.5 32.5t45.5 41.5q18 20 29.5 42.5t18 50.5t9.5 64.5t3 88.5v223h-164v-266zM354 1178h82v-41q-2 -41 -8 -89.5t-39 -80.5q-6 -4 -12 -9.5t-15 -9.5v-45q29 16 52.5 32.5t44.5 39.5 q18 20 29.5 42.5t18.5 51.5t10 65.5t3 88.5v223h-166v-268z" />
<glyph unicode="&#x201e;" horiz-adv-x="598" d="M78 0h82v-43q-2 -41 -8.5 -88t-40.5 -80q-6 -6 -12.5 -11t-12.5 -9v-45q27 16 50.5 32.5t45.5 40.5q35 41 47.5 93.5t12.5 154.5v219h-164v-264zM346 0h82v-43q-2 -41 -8 -88t-41 -80q-8 -10 -25 -20v-45q29 16 52.5 32.5t44.5 40.5q35 41 47 93.5t14 154.5v219h-166 v-264z" />
<glyph unicode="&#x2022;" horiz-adv-x="681" d="M76 723q0 -74 40 -141.5t117 -102.5q37 -16 66 -19t45 -3q117 0 190.5 74.5t73.5 191.5q0 16 -5 50t-21.5 71t-51 71.5t-92.5 57.5q-31 10 -55.5 13t-36.5 3q-57 0 -100 -17.5t-74 -44t-50.5 -55t-27.5 -51.5q-12 -31 -15 -59.5t-3 -38.5z" />
<glyph unicode="&#x2026;" horiz-adv-x="2048" d="M225 104q0 -47 33 -81.5t84 -34.5q27 0 55 14q41 20 50.5 54t9.5 48q2 47 -31 81t-80 34q-51 0 -86 -31.5t-35 -83.5zM909 104q0 -51 34 -83.5t83 -32.5q33 0 60.5 17.5t43.5 47.5q6 16 8.5 30.5t2.5 20.5q-2 49 -34 82t-79 33q-49 0 -84 -32.5t-35 -82.5zM1591 104 q0 -47 33 -81.5t84 -34.5q49 0 82 34.5t33 81.5q0 49 -33 82t-82 33q-45 0 -81 -31.5t-36 -83.5z" />
<glyph unicode="&#x202f;" horiz-adv-x="373" />
<glyph unicode="&#x205f;" horiz-adv-x="466" />
<glyph unicode="&#x2122;" horiz-adv-x="1406" d="M33 1346h219v-580h121v580h213v100h-553v-100zM643 766h117l-6 422l-9 135l35 -113l140 -444h104l137 444l35 115l-6 -137l-4 -422h117v680h-162l-166 -537l-170 537h-162v-680z" />
<glyph unicode="&#xe000;" horiz-adv-x="1095" d="M0 0v1096h1096v-1096h-1096z" />
<glyph unicode="&#xfb01;" horiz-adv-x="382" d="M18 958h91v-958h167v958h97v136h-94v143q0 51 24.5 58.5t65.5 4.5v140q-53 6 -109 6q-41 0 -81 -11.5t-56 -54.5q-10 -23 -11 -46t-1 -48v-190h-93v-138zM471 0h164v1096h-164v-1096zM473 1223h164v217h-164v-217z" />
<glyph unicode="&#xfb02;" horiz-adv-x="382" d="M18 958h91v-958h167v958h97v136h-94v143q0 51 24.5 58.5t65.5 4.5v140q-53 6 -109 6q-41 0 -81 -11.5t-56 -54.5q-10 -23 -11 -46t-1 -48v-190h-93v-138zM469 0h168v1446h-168v-1446z" />
</font>
</defs>
</svg>
